Loading...
Error

Chris Eaton - What Kind Of Love (1998) FLAC [Log/t​racks+.cue]

Статистика раздачи
Нет
 
     
 
 
Автор Сообщение

Pashakorg

Стаж: 7 лет 10 месяцев

Сообщений: 505

Украина

post 17-Дек-2011 12:17

[Цитировать]  [] 

Chris Eaton - What Kind Of Love (1998) FLAC [Log/t​racks+.cue]

Исполнитель: Chris Eaton
Год выпуска: May 05, 1998
Жанр: Gospel Albums, Contemporary Christian Music
Выпущено: Cadence

Треклист:
01 Old Friends
02 That's What Faith Is For
03 Boat of Devotion
04 Shooting Stars
05 God So Loved the World
06 Ordinary people
07 What Kind of Love
08 Take My Heart Away
09 Wherever I Go
10 Highest Honour
11 (Untitled)

Сайт исполнителя здесь
Exact Audio Copy V0.99 prebeta 5 from 4. May 2009

Отчёт EAC об извлечении, выполненном 23. ноября 2011, 21:02

Chris Eaton / What kind of love

Дисковод: HL-DT-STDVDRAM GSA-4167B Adapter: 0 ID: 0

Режим чтения : Достоверность
Использование точного потока : Да
Отключение кэша аудио : Да
Использование указателей C2 : Нет

Коррекция смещения при чтении : 667
Способность читать области Lead-in и Lead-out : Нет
Заполнение пропущенных сэмплов тишиной : Да
Удаление блоков с тишиной в начале и конце : Нет
При вычислениях CRC использовались нулевые сэмплы : Нет
Интерфейс : Встроенный Win32-интерфейс для Win NT/2000
Обработка зазоров : Не обнаружено, добавлено к предыдущему треку

Выходной формат : Пользовательский кодировщик
Выбранный битрейт : 768 kBit/s
Качество : Высокий
Добавление ID3-тэга : Нет
Утилита сжатия : C:\Program Files\Exact Audio Copy\FLAC\FLAC.EXE
Дополнительные параметры : -8 -V -T "ARTIST=%a" -T "TITLE=%t" -T "ALBUM=%g" -T "DATE=%y" -T"TRACKNUMBER=%n" -T "GENRE=%m" -T "COMMENT=EAC FLAC -8" %s

TOC извлечённого CD

Трек | Старт | Длительность | Начальный сектор | Конечный сектор
---------------------------------------------------------------------
1 | 0:00.32 | 4:33.60 | 32 | 20566
2 | 4:34.17 | 4:23.60 | 20567 | 40351
3 | 8:58.02 | 4:27.30 | 40352 | 60406
4 | 13:25.32 | 4:47.30 | 60407 | 81961
5 | 18:12.62 | 4:41.30 | 81962 | 103066
6 | 22:54.17 | 3:36.73 | 103067 | 119339
7 | 26:31.15 | 4:32.02 | 119340 | 139741
8 | 31:03.17 | 4:42.03 | 139742 | 160894
9 | 35:45.20 | 5:19.17 | 160895 | 184836
10 | 41:04.37 | 4:57.58 | 184837 | 207169
11 | 46:02.20 | 3:18.02 | 207170 | 222021

Трек 1

Имя файла H:\Музыка\Сборник англ\Chris Eaton\What kind of love (FLAC)\Chris Eaton-What kind of love01. Track01.wav

Пиковый уровень 98.3 %
Качество трека 100.0 %
CRC теста 6881E3E3
CRC копии 6881E3E3
Точное извлечение (достоверность 1) [14674E16]
Копирование... OK

Трек 2

Имя файла H:\Музыка\Сборник англ\Chris Eaton\What kind of love (FLAC)\Chris Eaton-What kind of love02. Track02.wav

Пиковый уровень 97.7 %
Качество трека 100.0 %
CRC теста 98981A99
CRC копии 98981A99
Точное извлечение (достоверность 1) [27FE4382]
Копирование... OK

Трек 3

Имя файла H:\Музыка\Сборник англ\Chris Eaton\What kind of love (FLAC)\Chris Eaton-What kind of love03. Track03.wav

Пиковый уровень 93.9 %
Качество трека 100.0 %
CRC теста 99259893
CRC копии 99259893
Точное извлечение (достоверность 1) [0FDBA280]
Копирование... OK

Трек 4

Имя файла H:\Музыка\Сборник англ\Chris Eaton\What kind of love (FLAC)\Chris Eaton-What kind of love04. Track04.wav

Пиковый уровень 100.0 %
Качество трека 100.0 %
CRC теста 7F1CF078
CRC копии 7F1CF078
Точное извлечение (достоверность 1) [5B0855DD]
Копирование... OK

Трек 5

Имя файла H:\Музыка\Сборник англ\Chris Eaton\What kind of love (FLAC)\Chris Eaton-What kind of love05. Track05.wav

Пиковый уровень 99.6 %
Качество трека 100.0 %
CRC теста 1C2919D7
CRC копии 1C2919D7
Точное извлечение (достоверность 1) [1BB333DA]
Копирование... OK

Трек 6

Имя файла H:\Музыка\Сборник англ\Chris Eaton\What kind of love (FLAC)\Chris Eaton-What kind of love06. Track06.wav

Пиковый уровень 100.0 %
Качество трека 100.0 %
CRC теста 5BA3C235
CRC копии 5BA3C235
Точное извлечение (достоверность 1) [DA2D6016]
Копирование... OK

Трек 7

Имя файла H:\Музыка\Сборник англ\Chris Eaton\What kind of love (FLAC)\Chris Eaton-What kind of love07. Track07.wav

Пиковый уровень 96.3 %
Качество трека 100.0 %
CRC теста 9D8D9DD8
CRC копии 9D8D9DD8
Точное извлечение (достоверность 1) [EC5B4FB3]
Копирование... OK

Трек 8

Имя файла H:\Музыка\Сборник англ\Chris Eaton\What kind of love (FLAC)\Chris Eaton-What kind of love08. Track08.wav

Пиковый уровень 95.1 %
Качество трека 100.0 %
CRC теста C3F0D8E9
CRC копии C3F0D8E9
Точное извлечение (достоверность 1) [0C1B0F33]
Копирование... OK

Трек 9

Имя файла H:\Музыка\Сборник англ\Chris Eaton\What kind of love (FLAC)\Chris Eaton-What kind of love09. Track09.wav

Пиковый уровень 100.0 %
Качество трека 100.0 %
CRC теста 263B9D21
CRC копии 263B9D21
Точное извлечение (достоверность 1) [1AC7F688]
Копирование... OK

Трек 10

Имя файла H:\Музыка\Сборник англ\Chris Eaton\What kind of love (FLAC)\Chris Eaton-What kind of love10. Track10.wav

Пиковый уровень 93.8 %
Качество трека 100.0 %
CRC теста 2A62678F
CRC копии 2A62678F
Точное извлечение (достоверность 1) [6CBC0322]
Копирование... OK

Трек 11

Имя файла H:\Музыка\Сборник англ\Chris Eaton\What kind of love (FLAC)\Chris Eaton-What kind of love11. Track11.wav

Пиковый уровень 95.3 %
Качество трека 100.0 %
CRC теста EEEB31FE
CRC копии EEEB31FE
Точное извлечение (достоверность 1) [7ECD50B8]
Копирование... OK

Все треки извлечены точно

Ошибок не произошло

Конец отчёта

_________________
"блаженнее давать, нежели принимать" - Деян.20:35
[Профиль]  [ЛС] 
Показать сообщения:    
Ответить на тему

Текущее время: 17-Окт 01:55

Часовой пояс: GMT + 4



Вы не можете начинать темы
Вы не можете отвечать на сообщения
Вы не можете редактировать свои сообщения
Вы не можете удалять свои сообщения
Вы не можете голосовать в опросах
Вы не можете прикреплять файлы к сообщениям
Вы не можете скачивать файлы
[  Execution time: 2.320 sec  |  MySQL: 15 queries |  GZIP ON  |  Mem: 597.55 KB / 4.04 MB / 3.49 MB  |  Load: 0.7 0.5 0.5  ]