Loading...
Error

Маховое колесо / Flywheel [Director's Cut] (на английском языке) (2003) DVD-9

Статистика раздачи
Нет
 
     
 
 
Автор Сообщение

Blessing

Стаж: 8 лет 8 месяцев

Сообщений: 2573

post 21-Мар-2012 10:21

[Цитировать]  [] 

Маховое колесо / Flywheel (на английском языке)

Выпущено: Sherwood Pictures (USA)
Режиссер: Алекс Кендрик / Alex Kendrick
Год выхода: 2003
Жанр: Драма, семейный
В ролях: Алекс Кендрикс/Alex Kendrick, Лиза Арнольд/Lisa Arnold, Блейк Бейли/Blake Bailey, Дженсен Барнс/Jansen Barnes, Роджер Бреланд/Roger Breland, Уолтер Барнет/Walter Burnett

Продолжительность: 01:58:32
Язык: English

О фильме: Это первый фильм из трех, от создателей фильмов "Огнеупорный" и "Противостояние гигантам". «Маховое колесо» посвящен теме компромисса и честности в делах.

Дополнительно:
Special Features
Flywheel Introduction By Alex Kendrick
The Making of Flywheel
Fireproof Teaser
Director's Commentary
Deleted Scenes
A Special Message
Outtakes
Apologies Reel
Butch Bowers TV Spot
Jay Austin TV Spot

Трейлер - СМОТРЕТЬ

Лицензия

офф.сайт

Формат: Mpeg-ps (ISO)
Качество: DVD-9
Video: MPEG2 Video 720x480 (4:3) 29.97fps 9800Kbps [Video]
Audio (английский): Dolby AC3 48000Hz stereo 192Kbps [Audio]
Audio (комментарий к фильму): Dolby AC3 48000Hz stereo 192Kbps [Audio]
Subtitle: английскиe, французские, испанские
General Sample Info From Track 1
Complete name : DVD ISO\FullDisc\FLYWHEEL\VIDEO_TS\VTS_01_1.VOB
Format : MPEG-PS
File size : 1 024 MiB
Duration : 19mn 32s
Overall bit rate mode : Variable
Overall bit rate : 7 325 Kbps

Video
ID : 224 (0xE0)
Format : MPEG Video
Format version : Version 2
Format profile : Main@Main
Format settings, BVOP : Yes
Format settings, Matrix : Custom
Duration : 19mn 32s
Bit rate mode : Variable
Bit rate : 6 795 Kbps
Maximum bit rate : 9 800 Kbps
Width : 720 pixels
Height : 480 pixels
Display aspect ratio : 4:3
Frame rate : 29.970 fps
Standard : NTSC
Color space : YUV
Chroma subsampling : 4:2:0
Bit depth : 8 bits
Scan type : Interlaced
Scan order : Top Field First
Compression mode : Lossy
Bits/(Pixel*Frame) : 0.656
Stream size : 950 MiB (93%)

Audio #1
ID : 189 (0xBD)-128 (0x80)
Format : AC-3
Format/Info : Audio Coding 3
Format profile : Dolby Digital
Mode extension : CM (complete main)
Muxing mode : DVD-Video
Duration : 19mn 32s
Bit rate mode : Constant
Bit rate : 192 Kbps
Channel(s) : 2 channels
Channel positions : Front: L R
Sampling rate : 48.0 KHz
Bit depth : 16 bits
Compression mode : Lossy
Stream size : 26.8 MiB (3%)

Audio #2
ID : 189 (0xBD)-129 (0x81)
Format : AC-3
Format/Info : Audio Coding 3
Mode extension : CM (complete main)
Muxing mode : DVD-Video
Duration : 19mn 32s
Bit rate mode : Constant
Bit rate : 192 Kbps
Channel(s) : 2 channels
Channel positions : Front: L R
Sampling rate : 48.0 KHz
Bit depth : 16 bits
Compression mode : Lossy
Stream size : 26.8 MiB (3%)
Этот фильм являет собой прекрасную историю, которая и трогательная и вдохновляющая в то же время. Каждый христианский бизнесмен должен обязательно посмотреть его, но уверен, что и другим этот фильм также понравится. Мне лично понравился сюжет о маленьком сыне, который все время смотрел за поступками своего отца, даже когда тот и не подозревал об этом. Это действительно правдиво показано о наших детях!
Сначала, мне не понравилась жена главного героя, так как я бы хотел, чтобы она сразу рассказала своему мужу всю правду о нем и его сыне. Но, ее поведение показало мне урок ходатайственной молитвы и позволение Богу говорить в его сердце и изменить мужа. Она просто отошла в сторону, позволила Богу сделать Его работу, а после этого стала возле мужа и продолжала так стоять пока они оба не перешли через тяжелые времена.
Очень хороший фильм!

_________________
И все, что делаете, делайте от души, как для Господа, а не для человеков (Кол.3:23)
[Профиль]  [ЛС] 
Показать сообщения:    
Ответить на тему

Текущее время: 18-Янв 05:34

Часовой пояс: GMT + 4



Вы не можете начинать темы
Вы не можете отвечать на сообщения
Вы не можете редактировать свои сообщения
Вы не можете удалять свои сообщения
Вы не можете голосовать в опросах
Вы не можете прикреплять файлы к сообщениям
Вы не можете скачивать файлы
[  Execution time: 0.279 sec  |  MySQL: 12 queries |  GZIP ON  |  Mem: 597.24 KB / 4 MB / 3.44 MB  |  Load: 0.8 1.6 1.7  ]