Loading...
Error

Нет Большей любви / No Greater Love (2009) DVD5

Статистика раздачи
Нет
 
     
 
 
Автор Сообщение

Aleksey

Стаж: 10 лет

Сообщений: 1205

Откуда: отсюда :)

post 25-Май-2011 02:34

[Цитировать]  [] 

Нет Большей любви / No Greater Love (2009) DVD5

Год выхода: 2009
Жанр: Драма
Режиссер: Jim O’Rear
В ролях: Brooke Bailey, Nicki Streisel

Продолжительность: 01:49:09
Перевод: Русский любительский (многоголосый (RabChristov))
Субтитры: Русские, английские

Описание:
Джефф и Хезер были теми о ком говорят «счастливая парочка». Не разлей вода с детства, они полюбили друг друга в старших классах и поженились в 22 года. Однако после рождения первого ребенка, Хезер впадает в глубочайшую депрессию. Безнадежно потерянная, она совершила невероятное… - бросила своего мужа с младенцом сыном и исчезла. И вот, десять лет спустя, мир Джеффа резко пошатнулся после того как Хезер внезапно объявилась в самом неожиданном месте…

Формат: DVD-Video
Качество: DVD5
Видео: MPEG-2, 720x480 (16:9), 23.976 fps, 8000 kbps
Аудио#1: ENG, AC3 5.1 (Front: L C R, Side: L R, LFE), 48.0 KHz, 448 kbps
Аудио#2: RUS, AC3 5.1 (Front: L C R, Side: L R, LFE), 48.0 KHz, 448 kbps
General
Complete name : E:\4down\Torrent\Нет Большей любви (2009) DVD5\VIDEO_TS\VTS_01_1.VOB
Format : MPEG-PS
File size : 1 024 MiB
Duration : 25mn 46s
Overall bit rate : 5 554 Kbps

Video
ID : 224 (0xE0)
Format : MPEG Video
Format version : Version 2
Format profile : Main@Main
Format settings, BVOP : Yes
Format settings, Matrix : Default
Duration : 25mn 46s
Bit rate mode : Variable
Bit rate : 4 547 Kbps
Nominal bit rate : 8 280 Kbps
Width : 720 pixels
Height : 480 pixels
Display aspect ratio : 16:9
Frame rate : 23.976 fps
Standard : NTSC
Color space : YUV
Chroma subsampling : 4:2:0
Bit depth : 8 bits
Scan type : Progressive
Scan order : 2:3 Pulldown
Compression mode : Lossy
Bits/(Pixel*Frame) : 0.549
Stream size : 838 MiB (82%)

Audio #1
ID : 128 (0x80)
Format : AC-3
Format/Info : Audio Coding 3
Mode extension : CM (complete main)
Duration : 25mn 46s
Bit rate mode : Constant
Bit rate : 448 Kbps
Channel(s) : 6 channels
Channel positions : Front: L C R, Side: L R, LFE
Sampling rate : 48.0 KHz
Bit depth : 16 bits
Compression mode : Lossy
Stream size : 82.6 MiB (8%)

Audio #2
ID : 129 (0x81)
Format : AC-3
Format/Info : Audio Coding 3
Mode extension : CM (complete main)
Duration : 25mn 46s
Bit rate mode : Constant
Bit rate : 448 Kbps
Channel(s) : 6 channels
Channel positions : Front: L C R, Side: L R, LFE
Sampling rate : 48.0 KHz
Bit depth : 16 bits
Compression mode : Lossy
Stream size : 82.6 MiB (8%)

Text #1
ID : 32 (0x20)
Format : RLE
Format/Info : Run-length encoding

Text #2
ID : 33 (0x21)
Format : RLE
Format/Info : Run-length encoding

Text #3
ID : 34 (0x22)
Format : RLE
Format/Info : Run-length encoding

Text #4
ID : 35 (0x23)
Format : RLE
Format/Info : Run-length encoding

Menu

General
Complete name : E:\4down\Torrent\Нет Большей любви (2009) DVD5\VIDEO_TS\VTS_01_2.VOB
Format : MPEG-PS
File size : 1 024 MiB
Duration : 25mn 29s
Overall bit rate : 5 615 Kbps

Video
ID : 224 (0xE0)
Format : MPEG Video
Format version : Version 2
Format profile : Main@Main
Format settings, BVOP : Yes
Format settings, Matrix : Default
Duration : 25mn 29s
Bit rate mode : Variable
Bit rate : 4 607 Kbps
Nominal bit rate : 8 280 Kbps
Width : 720 pixels
Height : 480 pixels
Display aspect ratio : 16:9
Frame rate : 23.976 fps
Standard : NTSC
Color space : YUV
Chroma subsampling : 4:2:0
Bit depth : 8 bits
Scan type : Progressive
Scan order : 2:3 Pulldown
Compression mode : Lossy
Bits/(Pixel*Frame) : 0.556
Stream size : 840 MiB (82%)

Audio #1
ID : 128 (0x80)
Format : AC-3
Format/Info : Audio Coding 3
Mode extension : CM (complete main)
Duration : 25mn 29s
Bit rate mode : Constant
Bit rate : 448 Kbps
Channel(s) : 6 channels
Channel positions : Front: L C R, Side: L R, LFE
Sampling rate : 48.0 KHz
Bit depth : 16 bits
Compression mode : Lossy
Delay relative to video : -581ms
Stream size : 81.7 MiB (8%)

Audio #2
ID : 129 (0x81)
Format : AC-3
Format/Info : Audio Coding 3
Mode extension : CM (complete main)
Duration : 25mn 29s
Bit rate mode : Constant
Bit rate : 448 Kbps
Channel(s) : 6 channels
Channel positions : Front: L C R, Side: L R, LFE
Sampling rate : 48.0 KHz
Bit depth : 16 bits
Compression mode : Lossy
Delay relative to video : -581ms
Stream size : 81.7 MiB (8%)

Text #1
ID : 32 (0x20)
Format : RLE
Format/Info : Run-length encoding
Duration : 25mn 29s
Delay relative to video : 234ms

Text #2
ID : 33 (0x21)
Format : RLE
Format/Info : Run-length encoding
Duration : 25mn 29s
Delay relative to video : 234ms

Text #3
ID : 34 (0x22)
Format : RLE
Format/Info : Run-length encoding
Duration : 25mn 29s
Delay relative to video : 334ms

Text #4
ID : 35 (0x23)
Format : RLE
Format/Info : Run-length encoding
Duration : 25mn 29s
Delay relative to video : 334ms

Menu

General
Complete name : E:\4down\Torrent\Нет Большей любви (2009) DVD5\VIDEO_TS\VTS_01_3.VOB
Format : MPEG-PS
File size : 1 024 MiB
Duration : 26mn 0s
Overall bit rate : 5 505 Kbps

Video
ID : 224 (0xE0)
Format : MPEG Video
Format version : Version 2
Format profile : Main@Main
Format settings, BVOP : Yes
Format settings, Matrix : Default
Duration : 25mn 59s
Bit rate mode : Variable
Bit rate : 4 499 Kbps
Nominal bit rate : 8 280 Kbps
Width : 720 pixels
Height : 480 pixels
Display aspect ratio : 16:9
Frame rate : 23.976 fps
Standard : NTSC
Color space : YUV
Chroma subsampling : 4:2:0
Bit depth : 8 bits
Scan type : Progressive
Scan order : 2:3 Pulldown
Compression mode : Lossy
Bits/(Pixel*Frame) : 0.543
Stream size : 837 MiB (82%)

Audio #1
ID : 128 (0x80)
Format : AC-3
Format/Info : Audio Coding 3
Mode extension : CM (complete main)
Duration : 26mn 0s
Bit rate mode : Constant
Bit rate : 448 Kbps
Channel(s) : 6 channels
Channel positions : Front: L C R, Side: L R, LFE
Sampling rate : 48.0 KHz
Bit depth : 16 bits
Compression mode : Lossy
Delay relative to video : -925ms
Stream size : 83.3 MiB (8%)

Audio #2
ID : 129 (0x81)
Format : AC-3
Format/Info : Audio Coding 3
Mode extension : CM (complete main)
Duration : 26mn 0s
Bit rate mode : Constant
Bit rate : 448 Kbps
Channel(s) : 6 channels
Channel positions : Front: L C R, Side: L R, LFE
Sampling rate : 48.0 KHz
Bit depth : 16 bits
Compression mode : Lossy
Delay relative to video : -925ms
Stream size : 83.3 MiB (8%)

Text #1
ID : 32 (0x20)
Format : RLE
Format/Info : Run-length encoding
Duration : 25mn 57s
Delay relative to video : 1s 401ms

Text #2
ID : 33 (0x21)
Format : RLE
Format/Info : Run-length encoding
Duration : 25mn 57s
Delay relative to video : 1s 401ms

Text #3
ID : 34 (0x22)
Format : RLE
Format/Info : Run-length encoding
Duration : 25mn 57s
Delay relative to video : 1s 534ms

Text #4
ID : 35 (0x23)
Format : RLE
Format/Info : Run-length encoding
Duration : 25mn 57s
Delay relative to video : 1s 534ms

Menu

General
Complete name : E:\4down\Torrent\Нет Большей любви (2009) DVD5\VIDEO_TS\VTS_01_4.VOB
Format : MPEG-PS
File size : 1 024 MiB
Duration : 25mn 29s
Overall bit rate : 5 618 Kbps

Video
ID : 224 (0xE0)
Format : MPEG Video
Format version : Version 2
Format profile : Main@Main
Format settings, BVOP : Yes
Format settings, Matrix : Default
Format settings, GOP : M=3, N=15
Duration : 25mn 28s
Bit rate mode : Variable
Bit rate : 4 610 Kbps
Nominal bit rate : 8 280 Kbps
Width : 720 pixels
Height : 480 pixels
Display aspect ratio : 16:9
Frame rate : 23.976 fps
Standard : NTSC
Color space : YUV
Chroma subsampling : 4:2:0
Bit depth : 8 bits
Scan type : Progressive
Scan order : 2:3 Pulldown
Compression mode : Lossy
Bits/(Pixel*Frame) : 0.556
Stream size : 840 MiB (82%)

Audio #1
ID : 128 (0x80)
Format : AC-3
Format/Info : Audio Coding 3
Mode extension : CM (complete main)
Duration : 25mn 29s
Bit rate mode : Constant
Bit rate : 448 Kbps
Channel(s) : 6 channels
Channel positions : Front: L C R, Side: L R, LFE
Sampling rate : 48.0 KHz
Bit depth : 16 bits
Compression mode : Lossy
Delay relative to video : -753ms
Stream size : 81.7 MiB (8%)

Audio #2
ID : 129 (0x81)
Format : AC-3
Format/Info : Audio Coding 3
Mode extension : CM (complete main)
Duration : 25mn 29s
Bit rate mode : Constant
Bit rate : 448 Kbps
Channel(s) : 6 channels
Channel positions : Front: L C R, Side: L R, LFE
Sampling rate : 48.0 KHz
Bit depth : 16 bits
Compression mode : Lossy
Delay relative to video : -753ms
Stream size : 81.7 MiB (8%)

Text #1
ID : 32 (0x20)
Format : RLE
Format/Info : Run-length encoding
Duration : 25mn 26s
Delay relative to video : 1s 919ms

Text #2
ID : 33 (0x21)
Format : RLE
Format/Info : Run-length encoding
Duration : 25mn 26s
Delay relative to video : 1s 919ms

Text #3
ID : 34 (0x22)
Format : RLE
Format/Info : Run-length encoding
Duration : 25mn 26s
Delay relative to video : 2s 19ms

Text #4
ID : 35 (0x23)
Format : RLE
Format/Info : Run-length encoding
Duration : 25mn 26s
Delay relative to video : 2s 19ms

Menu

General
Complete name : E:\4down\Torrent\Нет Большей любви (2009) DVD5\VIDEO_TS\VTS_01_5.VOB
Format : MPEG-PS
File size : 238 MiB
Duration : 6mn 23s
Overall bit rate : 5 197 Kbps

Video
ID : 224 (0xE0)
Format : MPEG Video
Format version : Version 2
Format profile : Main@Main
Format settings, BVOP : Yes
Format settings, Matrix : Default
Format settings, GOP : M=3, N=15
Duration : 6mn 23s
Bit rate mode : Variable
Bit rate : 4 198 Kbps
Nominal bit rate : 8 280 Kbps
Width : 720 pixels
Height : 480 pixels
Display aspect ratio : 16:9
Frame rate : 23.976 fps
Standard : NTSC
Color space : YUV
Chroma subsampling : 4:2:0
Bit depth : 8 bits
Scan type : Progressive
Scan order : 2:3 Pulldown
Compression mode : Lossy
Bits/(Pixel*Frame) : 0.507
Stream size : 192 MiB (81%)

Audio #1
ID : 128 (0x80)
Format : AC-3
Format/Info : Audio Coding 3
Mode extension : CM (complete main)
Duration : 6mn 23s
Bit rate mode : Constant
Bit rate : 448 Kbps
Channel(s) : 6 channels
Channel positions : Front: L C R, Side: L R, LFE
Sampling rate : 48.0 KHz
Bit depth : 16 bits
Compression mode : Lossy
Delay relative to video : -524ms
Stream size : 20.5 MiB (9%)

Audio #2
ID : 129 (0x81)
Format : AC-3
Format/Info : Audio Coding 3
Mode extension : CM (complete main)
Duration : 6mn 23s
Bit rate mode : Constant
Bit rate : 448 Kbps
Channel(s) : 6 channels
Channel positions : Front: L C R, Side: L R, LFE
Sampling rate : 48.0 KHz
Bit depth : 16 bits
Compression mode : Lossy
Delay relative to video : -524ms
Stream size : 20.5 MiB (9%)

Text #1
ID : 32 (0x20)
Format : RLE
Format/Info : Run-length encoding
Delay relative to video : 2s 653ms

Text #2
ID : 33 (0x21)
Format : RLE
Format/Info : Run-length encoding
Delay relative to video : 2s 653ms

Text #3
ID : 34 (0x22)
Format : RLE
Format/Info : Run-length encoding
Delay relative to video : 2s 787ms

Text #4
ID : 35 (0x23)
Format : RLE
Format/Info : Run-length encoding
Delay relative to video : 2s 787ms

Menu

_________________
"И напрасно я стану уверять, что сегодняшнее насилие создаст свободу завтра, — я внедряю только насилие. С жизнью не слукавишь. Не обманешь дерево, оно потянется туда, куда его направят. Прочее — ветер слов. И если мне кажется, что я жертвую вот этим поколением во имя счастья последующих, я просто-напросто жертвую людьми. Не этими и не теми, а всеми разом. Всех людей я обрекаю на злосчастье. Прочее — ветер слов. И если я воюю во имя мира, я укрепляю войну. С помощью войны не установить мира."
Антуан де Сент-Экзюпери. Цитадель


Последний раз редактировалось: Aleksey (2011-05-27 13:54), всего редактировалось 1 раз
[Профиль]  [ЛС] 

Aleksey

Стаж: 10 лет

Сообщений: 1205

Откуда: отсюда :)

post 26-Май-2011 07:05 (спустя 1 день 4 часа)

[Цитировать]  [] 

от сборщика двд-диска:

Цитата:

После сборки диска, при просмотре на бытовом плеере оказалось что плеер не делает конвертацию из режима Wide в Pan/scan (а только в letterbox), т.е. картинка на обычном телеке выглядит в виде прямоугольника в центре экрана, что не очень удобно при просмотре особенно на маленьком тв. Я пересобрал диск с включенным пансканом, но не обратил внимания что в появившийся режим по умолчанию воткнулись английские сабы.
Отсюда следующий выводы:
на бытовом плеере в меню настройки видео можно включить один из трех режимов просмотра двд: wide, letterbox, pan/scan.
Касательно данного двд в случае включенного режима панскан (картинка покрывает всю площадь экрана, обрезая края видео), дейсвительно будут идти английские сабы вместо русских. Русские сабы (если кому нужны) можно посмотреть на данном двд только в режиме wide и letterbox.
Прошу прощения за такие вот неудобства
Внимание, в озвучке обнаружились недочеты, поэтому после исправлений, диск будет переделан и торрент перезалит. Также будут устранены выше обозначенные недостатки. Пожалуйста, те кто еще не качал не начинайте качать этот торрент а дождитесь пока не перезалью новый торрент. Это будет сегодня.

_________________
"И напрасно я стану уверять, что сегодняшнее насилие создаст свободу завтра, — я внедряю только насилие. С жизнью не слукавишь. Не обманешь дерево, оно потянется туда, куда его направят. Прочее — ветер слов. И если мне кажется, что я жертвую вот этим поколением во имя счастья последующих, я просто-напросто жертвую людьми. Не этими и не теми, а всеми разом. Всех людей я обрекаю на злосчастье. Прочее — ветер слов. И если я воюю во имя мира, я укрепляю войну. С помощью войны не установить мира."
Антуан де Сент-Экзюпери. Цитадель
[Профиль]  [ЛС] 

Pashakorg

Стаж: 8 лет 9 месяцев

Сообщений: 505

Украина

post 26-Май-2011 10:44 (спустя 3 часа)

[Цитировать]  [] 

спасибо, жду...

_________________
"блаженнее давать, нежели принимать" - Деян.20:35
[Профиль]  [ЛС] 

Aleksey

Стаж: 10 лет

Сообщений: 1205

Откуда: отсюда :)

post 27-Май-2011 14:08 (спустя 1 день 3 часа)

[Цитировать]  [] 

готово. торрент перезалит.

_________________
"И напрасно я стану уверять, что сегодняшнее насилие создаст свободу завтра, — я внедряю только насилие. С жизнью не слукавишь. Не обманешь дерево, оно потянется туда, куда его направят. Прочее — ветер слов. И если мне кажется, что я жертвую вот этим поколением во имя счастья последующих, я просто-напросто жертвую людьми. Не этими и не теми, а всеми разом. Всех людей я обрекаю на злосчастье. Прочее — ветер слов. И если я воюю во имя мира, я укрепляю войну. С помощью войны не установить мира."
Антуан де Сент-Экзюпери. Цитадель
[Профиль]  [ЛС] 

Blessing

Стаж: 9 лет 4 месяца

Сообщений: 2574

post 27-Май-2011 19:09 (спустя 5 часов)

[Цитировать]  [] 

ay bq ay

_________________
И все, что делаете, делайте от души, как для Господа, а не для человеков (Кол.3:23)
[Профиль]  [ЛС] 

Aleksey

Стаж: 10 лет

Сообщений: 1205

Откуда: отсюда :)

post 31-Май-2011 00:14 (спустя 3 дня)

[Цитировать]  [] 

фильм понравился тем что передается забота лидера домашней группы, о своих подопечных за которых он в ответе.
и еще тем, как люди меняются, как вышло с уверовавшей женой. в жизни так, люди становясь с Богом - круто меняются, если искренне отдают свою жизнь Христу.
да, можно сказать что сюжет простой или даже убогий, но смысл и драгоенное из ничтожного - извлек.

_________________
"И напрасно я стану уверять, что сегодняшнее насилие создаст свободу завтра, — я внедряю только насилие. С жизнью не слукавишь. Не обманешь дерево, оно потянется туда, куда его направят. Прочее — ветер слов. И если мне кажется, что я жертвую вот этим поколением во имя счастья последующих, я просто-напросто жертвую людьми. Не этими и не теми, а всеми разом. Всех людей я обрекаю на злосчастье. Прочее — ветер слов. И если я воюю во имя мира, я укрепляю войну. С помощью войны не установить мира."
Антуан де Сент-Экзюпери. Цитадель
[Профиль]  [ЛС] 
Показать сообщения:    
Ответить на тему

Текущее время: 23-Сен 21:51

Часовой пояс: GMT + 4



Вы не можете начинать темы
Вы не можете отвечать на сообщения
Вы не можете редактировать свои сообщения
Вы не можете удалять свои сообщения
Вы не можете голосовать в опросах
Вы не можете прикреплять файлы к сообщениям
Вы не можете скачивать файлы
[  Execution time: 0.184 sec  |  MySQL: 11 queries |  GZIP ON  |  Mem: 597.55 KB / 4.03 MB / 3.58 MB  |  Load: 1.3 0.8 0.6  ]