Loading...
Error

Миллион за Неделю (2007) HDRip

Статистика раздачи
Нет
 
     
 
 
Автор Сообщение

Aleksey

Стаж: 9 лет 4 месяца

Сообщений: 1205

Откуда: отсюда :)

post 11-Апр-2011 10:56

[Цитировать]  [] 


Миллион за Неделю

Год выпуска: 2007
Жанр: Мелодрама, Комедия
Режиссёр: Игорь Корнеев
В ролях: Юрий Смирнов, Татьяна Снисаренко, Сергей Иванов, Александр Бодин и другие...

Продолжительность: 01:27:36
Перевод: Русский (оригинал)

Описание:
Они разошлись три года назад. За это время он стал миллионером, она безуспешно попыталась найти счастье в новом браке. Неожиданно в ее жизни вновь появляется он и опять делает ей предложение. Обескураженный отказом бывшей жены, он готов тратить свои миллионы, чтобы вернуть ее любовь...

Дополнительно:
"Миллион за Неделю" - фильм от создателей фильмов "Образ Зверя" и "История Заложника"

Формат: MP4
Качество: HDRip
Видео: AVC, 1280х720 (16:9), 25.000 fps, 2000 kbps
Аудио: MP3, 44.1 KHz, 2 ch, 190 kbps

General
Complete name : D:\4down\Torrent\Миллион за Неделю (2007) HDRip.mp4
Format : MPEG-4
Format profile : Base Media / Version 2
Codec ID : mp42
File size : 1.34 GiB
Duration : 1h 27mn
Overall bit rate : 2 192 Kbps
Encoded date : UTC 2010-02-24 16:30:04
Tagged date : UTC 2010-02-24 16:33:06
Writing application : mp4creator 1.4.4

Video
ID : 1
Format : AVC
Format/Info : Advanced Video Codec
Format profile : Baseline@L1.3
Format settings, CABAC : No
Format settings, ReFrames : 2 frames
Codec ID : avc1
Codec ID/Info : Advanced Video Coding
Duration : 1h 27mn
Bit rate mode : Variable
Bit rate : 2 000 Kbps
Width : 1 280 pixels
Height : 720 pixels
Display aspect ratio : 16:9
Frame rate mode : Constant
Frame rate : 25.000 fps
Color space : YUV
Chroma subsampling : 4:2:0
Bit depth : 8 bits
Scan type : Progressive
Bits/(Pixel*Frame) : 0.087
Stream size : 1.22 GiB (91%)
Language : English
Encoded date : UTC 2010-02-24 16:30:04
Tagged date : UTC 2010-02-24 16:33:00

Audio
ID : 2
Format : MPEG Audio
Format version : Version 1
Format profile : Layer 3
Mode : Joint stereo
Codec ID : 6B
Duration : 1h 27mn
Bit rate mode : Variable
Bit rate : 190 Kbps
Maximum bit rate : 222 Kbps
Channel(s) : 2 channels
Sampling rate : 44.1 KHz
Compression mode : Lossy
Stream size : 119 MiB (9%)
Language : English
Encoded date : UTC 2010-02-24 16:33:01
Tagged date : UTC 2010-02-24 16:33:06



_________________
"И напрасно я стану уверять, что сегодняшнее насилие создаст свободу завтра, — я внедряю только насилие. С жизнью не слукавишь. Не обманешь дерево, оно потянется туда, куда его направят. Прочее — ветер слов. И если мне кажется, что я жертвую вот этим поколением во имя счастья последующих, я просто-напросто жертвую людьми. Не этими и не теми, а всеми разом. Всех людей я обрекаю на злосчастье. Прочее — ветер слов. И если я воюю во имя мира, я укрепляю войну. С помощью войны не установить мира."
Антуан де Сент-Экзюпери. Цитадель
[Профиль]  [ЛС] 
Показать сообщения:    
Ответить на тему

Текущее время: 17-Янв 07:13

Часовой пояс: GMT + 4



Вы не можете начинать темы
Вы не можете отвечать на сообщения
Вы не можете редактировать свои сообщения
Вы не можете удалять свои сообщения
Вы не можете голосовать в опросах
Вы не можете прикреплять файлы к сообщениям
Вы не можете скачивать файлы
[  Execution time: 2.256 sec  |  MySQL: 15 queries |  GZIP ON  |  Mem: 597.24 KB / 4 MB / 3.45 MB  |  Load: 0.2 0.4 0.9  ]