Loading...
Error

История Заложника (Игорь Корнеев) (2011) HDRip

Статистика раздачи
Нет
 
     
 
 
Автор Сообщение

Blessing

Стаж: 8 лет 7 месяцев

Сообщений: 2573

post 11-Апр-2011 02:55

[Цитировать]  [] 


История Заложника



Жанр: Драма
Год выпуска: 2011
Продолжительность: 01:40:34
Режиссёр: Игорь Корнеев

В ролях: Александр Бодин, Эдуард Гарустович, Сергей Морогов, Ибрагим Исмаилов, Александр Хлынов, Ирина Усманова, Леонид Мирский, Галина Корнеева, Наталья Матвеева, Нина Виноградова, Глеб Якушев, Татьяна Снисаренко, Ева Снисаренко, Владимир Рублёв, Сергей Сивов, Сергей Куртеков, Андрей Пузенков, Алексей Богданов, Хасан Хакимов, Юля Костомарова, Игорь Романов, Абулфаз Байрамов, Сергей Богданов, Ростислав Михайлов, Игорь Павловский, Сергей Иванов, Игорь Сушков, Наталья Сушкова и другие...

Описание: Вор по кличке «Волчок», которого так и не смогли поймать, решает начать новую жизнь. Устроившись сантехником, он ремонтирует протечку в квартире, на которую совершается разбойный налет.
Волчок и хозяин квартиры оказываются заложниками двух уголовников с одной стороны, и группы захвата с другой.
Операцией по обезвреживанию преступников руководит капитан милиции – заклятый враг бывшего вора.
Капитан уверен, что нападение на квартиру антикварщика – дело рук Волчка.
С этого момента, в жизнь Волчка врываются события, которые не приснятся даже в самом жутком сне…

Дополнительно: "История Заложника" - фильм от создателей фильмов "Образ Зверя" и "Миллион за неделю"

Качество видео: HDRip
Формат видео: MP4
Видео: 1999 Кбит/сек, 1280х720 (16:9), в 25.000 Кадр/сек, AVC
Аудио: 188 Кбит/сек, 44.1 КГц, 2 канала, MP3

Полное имя : D:\istoriya_zalozhnika.mp4
Формат : MPEG-4
Профиль формата : Base Media / Version 2
Идентификатор кодека : mp42
Размер файла : 1,55 Гбайт
Продолжительность : 1 ч. 41 м.
Общий поток : 2189 Кбит/сек
Дата кодирования : UTC 2010-02-23 17:43:37
Дата пометки : UTC 2010-02-23 17:45:57
Программа кодирования : mp4creator 1.4.4

Видео
Идентификатор : 1
Формат : AVC
Формат/Информация : Advanced Video Codec
Профиль формата : Baseline@L1.3
Параметр CABAC формата : Нет
Параметр ReFrames формата : 2 кадры
Идентификатор кодека : avc1
Идентификатор кодека/Информация : Advanced Video Coding
Продолжительность : 1 ч. 41 м.
Вид битрейта : Переменный
Битрейт : 1999 Кбит/сек
Ширина : 1280 пикс.
Высота : 720 пикс.
Соотношение сторон : 16:9
Режим частоты кадров : Постоянный
Частота кадров : 25,000 кадр/сек
Цветовое пространство : YUV
Подвыборка цветности : 4:2:0
Битовая глубина : 8 бит
Тип развёртки : Прогрессивная
Бит/(Пиксели*Кадры) : 0.087
Размер потока : 1,42 Гбайт (91%)
Язык : English
Дата кодирования : UTC 2010-02-23 17:43:37
Дата пометки : UTC 2010-02-23 17:45:48

Аудио
Идентификатор : 2
Формат : MPEG Audio
Версия формата : Version 1
Профиль формата : Layer 3
Режим : Joint stereo
Идентификатор кодека : 6B
Продолжительность : 1 ч. 41 м.
Вид битрейта : Переменный
Битрейт : 188 Кбит/сек
Максимальный битрейт : 228 Кбит/сек
Канал(ы) : 2 канала(ов)
Частота : 44,1 КГц
Метод сжатия : С потерями
Размер потока : 136 Мбайт (9%)
Библиотека кодирования : LAME3.98.4
Язык : English
Дата кодирования : UTC 2010-02-23 17:45:49
Дата пометки : UTC 2010-02-23 17:45:57




оформление от пользователя Jaguar94

_________________
И все, что делаете, делайте от души, как для Господа, а не для человеков (Кол.3:23)
[Профиль]  [ЛС] 

Aleksey

Стаж: 9 лет 4 месяца

Сообщений: 1205

Откуда: отсюда :)

post 07-Май-2011 18:58 (спустя 26 дней)

[Цитировать]  [] 

народ! незабываем говорить спасибо и нажимать кнопку "Спасибо".
вам ведь не трудно, верно?
благословений!

_________________
"И напрасно я стану уверять, что сегодняшнее насилие создаст свободу завтра, — я внедряю только насилие. С жизнью не слукавишь. Не обманешь дерево, оно потянется туда, куда его направят. Прочее — ветер слов. И если мне кажется, что я жертвую вот этим поколением во имя счастья последующих, я просто-напросто жертвую людьми. Не этими и не теми, а всеми разом. Всех людей я обрекаю на злосчастье. Прочее — ветер слов. И если я воюю во имя мира, я укрепляю войну. С помощью войны не установить мира."
Антуан де Сент-Экзюпери. Цитадель
[Профиль]  [ЛС] 

Shurochka

Стаж: 6 лет 11 месяцев

Сообщений: 8

post 10-Июл-2011 19:59 (спустя 2 месяца 3 дня)

[Цитировать]  [] 

Большущее СПАСИБО!!!
[Профиль]  [ЛС] 
Показать сообщения:    
Ответить на тему

Текущее время: 17-Янв 07:14

Часовой пояс: GMT + 4



Вы не можете начинать темы
Вы не можете отвечать на сообщения
Вы не можете редактировать свои сообщения
Вы не можете удалять свои сообщения
Вы не можете голосовать в опросах
Вы не можете прикреплять файлы к сообщениям
Вы не можете скачивать файлы
[  Execution time: 0.164 sec  |  MySQL: 11 queries |  GZIP ON  |  Mem: 597.24 KB / 4.02 MB / 3.47 MB  |  Load: 0.2 0.4 0.8  ]