Loading...
Error

Битва каждого молодого человека / Every Young Man's Battle (2003) DVDRip

Статистика раздачи
Нет
 
     
 
 
Автор Сообщение

Aleksey

Стаж: 9 лет

Сообщений: 1205

Откуда: отсюда :)

post 05-Фев-2012 23:03

[Цитировать]  [] 

Битва каждого молодого человека / Every Young Man's Battle (2003) DVDRip

Год выпуска: 2003
Жанр: Документальный
Выпущено: USA
Режиссер: Stephen Arterburn, Fred Stoeker

Продолжительность: 00:57:36
Перевод: Русский любительский (одноголосый) (перевод и озвучка Дениса Васильева)

Описание:
Фильм "Битва каждого молодого человека" посвящен вопросам порнографии, последствиям увлечения ей и освобождению от порнографической зависимости.
Посвящается всем мужчинам, независимо от возраста, которые желают жить чисто.

От себя:
Документальный фильм, повествует о том как хранить себя в чистоте, о личной святости во Христе, о том как бороться и побороть порнографию. Также свидетельства и обмен опытом тех кто однажды попал в зависимость от порнографии, есть также свидетельства о том как они вышли победителями силою Христовою, подотчетностью и Силою Божьего Слова. Также о том, что важно иметь человека, который в любое время суток поддержит советом, молитвой ради победы над грехом. Также приводится статистика, которая по нынешним временам уже занижена (судя по дате выхода данного фильма), однако независимо от даты выхода считаю что смысл и ценность данного материала берет верх.
В большинстве церквях больше речь о преуспевании или помазании. Слава Богу за все, но дай Бог нашим служителям говорить о более глубоких темах, особенно когда дело касается молодежи. Верю что по нашим пламенным молитвам веры и всяческом распространении подобного материала среди церквей - это станет кому нибудь ответом и поддержкой, решением и свидетельством настоящей любви Отца!
а проблема есть, особенно среди подростков-молодежи.
Друзья, не жалейте средств, накупите чистых дисков чтоб позаписывать и распространить среди всех христиан.

Личная оценка: 10 из 10

Формат: AVI
Качество: DVDRip
Видео: H.264, 720x480 (3:2), 29.970 fps, 1342 kbps
Аудио: AAC, 1 ch, 44.1 KHz, 64 kbps
General
Complete name : F:\4down\Torrent\Битва каждого молодого человека (2003) DVDRip.avi
Format : AVI
Format/Info : Audio Video Interleave
File size : 585 MiB
Duration : 57mn 36s
Overall bit rate : 1 421 Kbps
Writing application : Lavf52.43.0

Video
ID : 0
Format : AVC
Format/Info : Advanced Video Codec
Format profile : High@L3.0
Format settings, CABAC : Yes
Format settings, ReFrames : 1 frame
Codec ID : H264
Duration : 57mn 36s
Bit rate : 1 342 Kbps
Width : 720 pixels
Height : 480 pixels
Display aspect ratio : 3:2
Frame rate : 29.970 fps
Standard : NTSC
Color space : YUV
Chroma subsampling : 4:2:0
Bit depth : 8 bits
Scan type : Progressive
Bits/(Pixel*Frame) : 0.130
Stream size : 553 MiB (94%)

Audio
ID : 1
Format : AAC
Format/Info : Advanced Audio Codec
Format profile : LC
Codec ID : FF
Duration : 57mn 35s
Bit rate : 64.0 Kbps
Channel(s) : 1 channel
Channel positions : Front: C
Sampling rate : 44.1 KHz
Compression mode : Lossy
Stream size : 26.4 MiB (5%)
Alignment : Split accross interleaves
Interleave, duration : 23 ms (0.70 video frame)

_________________
"И напрасно я стану уверять, что сегодняшнее насилие создаст свободу завтра, — я внедряю только насилие. С жизнью не слукавишь. Не обманешь дерево, оно потянется туда, куда его направят. Прочее — ветер слов. И если мне кажется, что я жертвую вот этим поколением во имя счастья последующих, я просто-напросто жертвую людьми. Не этими и не теми, а всеми разом. Всех людей я обрекаю на злосчастье. Прочее — ветер слов. И если я воюю во имя мира, я укрепляю войну. С помощью войны не установить мира."
Антуан де Сент-Экзюпери. Цитадель


Последний раз редактировалось: Aleksey (2012-12-03 14:52), всего редактировалось 1 раз
[Профиль]  [ЛС] 

Aleksey

Стаж: 9 лет

Сообщений: 1205

Откуда: отсюда :)

post 03-Дек-2012 14:58 (спустя 9 месяцев)

[Цитировать]  [] 

снова "слетают" раздачи...
вернулся и перерегистрировал+стал на раздачу. все это лишь ради тех кто может сюда заглянуть. материал важный и нужный. хорошо бы золото вернуть.
благословений!

п.с. проверил работоспособность и отредактировал в описании линки, удалил файлобменники (все три просрочены), остались рабочие в "трекеры" и "прямые" (на случай если вам лень разбираться что такое торрент-трекер и с чем его едят) ap

_________________
"И напрасно я стану уверять, что сегодняшнее насилие создаст свободу завтра, — я внедряю только насилие. С жизнью не слукавишь. Не обманешь дерево, оно потянется туда, куда его направят. Прочее — ветер слов. И если мне кажется, что я жертвую вот этим поколением во имя счастья последующих, я просто-напросто жертвую людьми. Не этими и не теми, а всеми разом. Всех людей я обрекаю на злосчастье. Прочее — ветер слов. И если я воюю во имя мира, я укрепляю войну. С помощью войны не установить мира."
Антуан де Сент-Экзюпери. Цитадель
[Профиль]  [ЛС] 
Показать сообщения:    
Ответить на тему

Текущее время: 15-Авг 11:15

Часовой пояс: GMT + 4



Вы не можете начинать темы
Вы не можете отвечать на сообщения
Вы не можете редактировать свои сообщения
Вы не можете удалять свои сообщения
Вы не можете голосовать в опросах
Вы не можете прикреплять файлы к сообщениям
Вы не можете скачивать файлы
[  Execution time: 0.143 sec  |  MySQL: 11 queries |  GZIP ON  |  Mem: 597.5 KB / 4.01 MB / 3.45 MB  |  Load: 0.9 0.5 0.5  ]