Loading...
Error

Муж скорбей (авторский клип) / Virum dolorum (video author) (2010) DVDRip

Статистика раздачи
Нет
 
     
 
 
Автор Сообщение

SKLYARAN74

Стаж: 6 лет 7 месяцев

Сообщений: 10

Украина

post 05-Июн-2011 21:26

[Цитировать]  [] 

Муж скорбей (авторский клип) / Virum dolorum (video author) 2010 DVDRip

Год выпуска: 2010
Жанр: Драма
Режиссер: В.Иванченко

Продолжительность: 00:04:54
Перевод: Не требуется

Описание: клип создан по сюжету фильма Страсти Христовы и авторской песни Ярослава Кондрича
General
Complete name :Муж скорбей.avi
Format : AVI
Format/Info : Audio Video Interleave
File size : 46.6 MiB
Duration : 4mn 54s
Overall bit rate : 1 325 Kbps
Writing application : MEncoder 1.0rc2-4.2.4
Writing library : MPlayer

Video
ID : 0
Format : MPEG-4 Visual
Format profile : Advanced Simple@L5
Format settings, BVOP : 2
Format settings, QPel : No
Format settings, GMC : No warppoints
Format settings, Matrix : Default (H.263)
Codec ID : XVID
Codec ID/Hint : XviD
Duration : 4mn 54s
Bit rate : 1 184 Kbps
Width : 720 pixels
Height : 576 pixels
Display aspect ratio : 5:4
Frame rate : 25.000 fps
Standard : PAL
Color space : YUV
Chroma subsampling : 4:2:0
Bit depth : 8 bits
Scan type : Progressive
Compression mode : Lossy
Bits/(Pixel*Frame) : 0.114
Stream size : 41.6 MiB (89%)
Writing library : XviD 1.1.2 (UTC 2006-11-01)

Audio
ID : 1
Format : MPEG Audio
Format version : Version 1
Format profile : Layer 3
Codec ID : 55
Codec ID/Hint : MP3
Duration : 4mn 54s
Bit rate mode : Constant
Bit rate : 128 Kbps
Channel(s) : 2 channels
Sampling rate : 44.1 KHz
Compression mode : Lossy
Delay relative to video : 40ms
Stream size : 4.50 MiB (10%)
Alignment : Aligned on interleaves
Interleave, duration : 26 ms (0.65 video frame)
Interleave, preload duration : 522 ms
Качество: DVDRip
Формат: AVI
Видео кодек: XviD
Аудио кодек: MPEG Audio
Видео: MPEG-4;1 184 Kbps;720х576 pixels;25.000 fps
Аудио: MPEG Audio\Layer 3;128 Kbps;2 channels;44.1 KHz


Последний раз редактировалось: SKLYARAN74 (2011-06-28 00:26), всего редактировалось 2 раз(а)
[Профиль]  [ЛС] 

post 06-Июн-2011 01:30 (спустя 4 часа)

[] 

Топик был перенесен из форума Тестовый форум (новые релизы размещать здесь!!!!) в форум Клипы

Blessing
 

mihakill

Стаж: 5 лет 10 месяцев

Сообщений: 1

Украина

post 26-Дек-2011 00:07 (спустя 6 месяцев)

[Цитировать]  [] 

kkkkkkkkkkkkkkkkkkkkkkkkkk
[Профиль]  [ЛС] 

Blessing

Стаж: 8 лет 6 месяцев

Сообщений: 2573

post 26-Дек-2011 00:14 (спустя 6 минут)

[Цитировать]  [] 

mihakill писал(а):

kkkkkkkkkkkkkkkkkkkkkkkkkk
Это что?

_________________
И все, что делаете, делайте от души, как для Господа, а не для человеков (Кол.3:23)
[Профиль]  [ЛС] 
Показать сообщения:    
Ответить на тему

Текущее время: 20-Ноя 13:41

Часовой пояс: GMT + 4



Вы не можете начинать темы
Вы не можете отвечать на сообщения
Вы не можете редактировать свои сообщения
Вы не можете удалять свои сообщения
Вы не можете голосовать в опросах
Вы не можете прикреплять файлы к сообщениям
Вы не можете скачивать файлы
[  Execution time: 0.194 sec  |  MySQL: 11 queries |  GZIP ON  |  Mem: 597.55 KB / 4.04 MB / 3.48 MB  |  Load: 0.7 0.9 0.8  ]