Loading...
Error

Чудотворец / The Miracle Maker (Дерек В. Хайс, Станислав Соколов) [2000 г., Драма/Биография, BDRip, 720p]

Статистика раздачи
Нет
 
     
 
 
Автор Сообщение

MishCX

Стаж: 4 года 9 месяцев

Сообщений: 13

Украина

post 03-Янв-2013 19:27

[Цитировать]  [] 

Чудотворец / The Miracle Maker

Год выпуска: 2000
Страны: Великобритания, Россия
Жанр: Драма/Биография
Продолжительность: 1:30
Перевод: Профессиональный (двухголосый закадровый)
Перевод: Профессиональный (многоголосый закадровый)

Режиссеры: Дерек В. Хайс, Станислав Соколов

Сюжет:Полнометражный мультипликационный фильм о жизни Иисуса Христа и добрых делах, которые он совершал для людей. Он творил чудеса, учил мудрости, возвращал потерянные надежды до тех пор, пока его враги не решили его погубить. Эта история рассказывается уже на протяжении двух тысяч лет, но такой вы её увидите её впервые. Ошеломляющая трехмерная анимация, с помощью которой была создана эта удивительная история о Божьем сыне, дает полное ощущение реальности и масштабности происходящего и позволяет увидеть всю силу, мудрость и доброту человека, которого называли чудотворцем.

Качество: BDRip 720p
Формат: MKV
Видео: AVC, 1280х720, 6235 Кбит/сек, 23,976 кадр/сек
Аудио: Русский (АС3, 2 ch, 192 Кбит/сек, 48,0 КГц) 2-х голосый, Фортуна-Фильм
Аудио: Русский (АС3, 2 ch, 192 Кбит/сек, 48,0 КГц) R5, Многоголосый
Аудио: Английский (АС3, 6 ch, 640 Кбит/сек, 48,0 КГц)

Скриншоты:
Увеличить Увеличить Увеличить Увеличить
Video
ID : 1
Format : AVC
Format/Info : Advanced Video Codec
Format profile : High@L4.1
Format settings, CABAC : Yes
Format settings, ReFrames : 9 frames
Muxing mode : Header stripping
Codec ID : V_MPEG4/ISO/AVC
Duration : 1h 30mn
Bit rate : 6 235 Kbps
Width : 1 280 pixels
Height : 720 pixels
Display aspect ratio : 16:9
Frame rate mode : Constant
Frame rate : 23.976 fps
Color space : YUV
Chroma subsampling : 4:2:0
Bit depth : 8 bits
Scan type : Progressive
Bits/(Pixel*Frame) : 0.282
Stream size : 3.87 GiB (84%)
Writing library : x264 core 84 r1400M 20fa784
Encoding settings : cabac=1 / ref=9 / deblock=1:-3:-3 / analyse=0x3:0x113 / me=umh / subme=9 / psy=1 / psy_rd=0.9:0.0 / mixed_ref=1 / me_range=32 / chroma_me=1 / trellis=1 / 8x8dct=1 / cqm=0 / deadzone=21,11 / fast_pskip=0 / chroma_qp_offset=-2 / threads=12 / sliced_threads=0 / nr=0 / decimate=0 / mbaff=0 / constrained_intra=0 / bframes=8 / b_pyramid=2 / b_adapt=1 / b_bias=0 / direct=1 / wpredb=1 / wpredp=2 / keyint=250 / keyint_min=25 / scenecut=40 / intra_refresh=0 / rc_lookahead=40 / rc=2pass / mbtree=1 / bitrate=6235 / ratetol=1.0 / qcomp=0.60 / qpmin=10 / qpmax=51 / qpstep=4 / cplxblur=20.0 / qblur=0.5 / ip_ratio=1.40 / aq=1:0.80 / pulldown=0 / nal_hrd=0
Language : English
Default : Yes
Forced : No

Audio #1
ID : 2
Format : AC-3
Format/Info : Audio Coding 3
Mode extension : CM (complete main)
Format settings, Endianness : Big
Muxing mode : Header stripping
Codec ID : A_AC3
Duration : 1h 30mn
Bit rate mode : Constant
Bit rate : 192 Kbps
Channel(s) : 2 channels
Channel positions : Front: L R
Sampling rate : 48.0 KHz
Bit depth : 16 bits
Compression mode : Lossy
Stream size : 125 MiB (3%)
Title : 2-х голосый
Language : Russian
Default : Yes
Forced : No

Audio #2
ID : 3
Format : AC-3
Format/Info : Audio Coding 3
Mode extension : CM (complete main)
Format settings, Endianness : Big
Muxing mode : Header stripping
Codec ID : A_AC3
Duration : 1h 30mn
Bit rate mode : Constant
Bit rate : 192 Kbps
Channel(s) : 2 channels
Channel positions : Front: L R
Sampling rate : 48.0 KHz
Bit depth : 16 bits
Compression mode : Lossy
Stream size : 125 MiB (3%)
Title : R5. Многоголосый
Language : Russian
Default : No
Forced : No

Audio #3
ID : 4
Format : AC-3
Format/Info : Audio Coding 3
Mode extension : CM (complete main)
Format settings, Endianness : Big
Muxing mode : Header stripping
Codec ID : A_AC3
Duration : 1h 30mn
Bit rate mode : Constant
Bit rate : 640 Kbps
Channel(s) : 6 channels
Channel positions : Front: L C R, Side: L R, LFE
Sampling rate : 48.0 KHz
Bit depth : 16 bits
Compression mode : Lossy
Stream size : 416 MiB (9%)
Title : Original
Language : English
Default : No
Forced : No

_________________
Когда ты будешь в скорби, и когда все это постигнет тебя в последствие времени, то обратишься к Господу, Богу твоему, и послушаешь гласа Его.
Господь, Бог твой, есть Бог милосердый; Он не оставит тебя и не погубит тебя...
(Втор.4:30,31)
Изглажу беззакония твои, как туман, и грехи твои, как облако; обратись ко Мне, ибо Я искупил тебя.
(Ис.44:22)


Последний раз редактировалось: MishCX (2013-10-07 17:38), всего редактировалось 2 раз(а)
[Профиль]  [ЛС] 

post 04-Янв-2013 18:22 (спустя 22 часа)

[] 

Топик был перенесен из форума Видео (художественные, документальные, видеопроповеди) в форум Мультфильмы

Blessing
 
Показать сообщения:    
Ответить на тему

Текущее время: 26-Сен 18:45

Часовой пояс: GMT + 4



Вы не можете начинать темы
Вы не можете отвечать на сообщения
Вы не можете редактировать свои сообщения
Вы не можете удалять свои сообщения
Вы не можете голосовать в опросах
Вы не можете прикреплять файлы к сообщениям
Вы не можете скачивать файлы
[  Execution time: 0.159 sec  |  MySQL: 10 queries |  GZIP ON  |  Mem: 597.2 KB / 3.24 MB / 2.7 MB  |  Load: 1.1 0.8 0.5  ]