Loading...
Error

Мар Инок (Верон Аш) Предназначение поколений (1994) DVDRip

Статистика раздачи
Нет
 
     
 
 
Автор Сообщение

SKLYARAN74

Стаж: 7 лет 8 месяцев

Сообщений: 10

Украина

post 03-Апр-2011 19:12

[Цитировать]  [] 

Мар Инок (Верон Аш) - Предназначение поколений

Год выпуска: 1994
Жанр: видеопроповедь
Продолжительность: 02:20:09
Перевод: Любительский (одноголосый)

Описание: оцифрованная запись проповеди Верона Аша 1.09.1994 года в церкви "Источник Жизни"СПб
Format : AVI
Format/Info : Audio Video Interleave
Format profile : OpenDML
File size : 1.14 GiB
Duration : 2h 20mn
Overall bit rate : 1 163 Kbps
Writing application : MEncoder Sherpya-SVN-r32492-4.2.5
Writing library : MPlayer

Video
ID : 0
Format : MPEG-4 Visual
Format profile : Simple@L3
Format settings, BVOP : No
Format settings, QPel : No
Format settings, GMC : No warppoints
Format settings, Matrix : Default (H.263)
Codec ID : XVID
Codec ID/Hint : XviD
Duration : 2h 20mn
Bit rate : 40.0 Kbps
Width : 704 pixels
Height : 576 pixels
Display aspect ratio : 1.222
Frame rate : 25.000 fps
Standard : PAL
Color space : YUV
Chroma subsampling : 4:2:0
Bit depth : 8 bits
Scan type : Progressive
Compression mode : Lossy
Bits/(Pixel*Frame) : 0.004
Stream size : 40.1 MiB (3%)
Writing library : XviD 1.2.1 (UTC 2008-12-04)

Audio
ID : 1
Format : MPEG Audio
Codec ID : 55
Codec ID/Hint : MP3
Duration : 2h 20mn
Bit rate : 123 Kbps
Channel(s) : 2 channels
Sampling rate : 44.1 KHz
Compression mode : Lossy
Stream size : 123 MiB (11%)
Alignment : Aligned on interleaves
Качество: DVDRip
Формат: AVI
Видео кодек: XviD
Аудио кодек: MP3
Видео: MPEG-4;PAL;704х576 (4:3);25.000 fps;40.0 Kbps;
Аудио: MPEG Audio;MP3;44.1 KHz;2 channels;123 Kbps

DVD тут
[Профиль]  [ЛС] 

post 03-Апр-2011 22:39 (спустя 3 часа)

[] 

Топик был перенесен из форума Тестовый форум (новые релизы размещать здесь!!!!) в форум Мар Инок (Верон Аш)

Pashakorg
 

Aleksey

Стаж: 10 лет

Сообщений: 1205

Откуда: отсюда :)

post 19-Апр-2011 03:59 (спустя 15 дней)

[Цитировать]  [] 

благодарю за сделаный рип на основе двд-релиза. СПАСИБО!!!

_________________
"И напрасно я стану уверять, что сегодняшнее насилие создаст свободу завтра, — я внедряю только насилие. С жизнью не слукавишь. Не обманешь дерево, оно потянется туда, куда его направят. Прочее — ветер слов. И если мне кажется, что я жертвую вот этим поколением во имя счастья последующих, я просто-напросто жертвую людьми. Не этими и не теми, а всеми разом. Всех людей я обрекаю на злосчастье. Прочее — ветер слов. И если я воюю во имя мира, я укрепляю войну. С помощью войны не установить мира."
Антуан де Сент-Экзюпери. Цитадель
[Профиль]  [ЛС] 

Aleksey

Стаж: 10 лет

Сообщений: 1205

Откуда: отсюда :)

post 21-Окт-2011 22:50 (спустя 6 месяцев)

[Цитировать]  [] 

Цитата:

Видео: MPEG-4;PAL;704х576 (4:3);25.000 fps;40.0 Kbps;
как это возможно? ai

_________________
"И напрасно я стану уверять, что сегодняшнее насилие создаст свободу завтра, — я внедряю только насилие. С жизнью не слукавишь. Не обманешь дерево, оно потянется туда, куда его направят. Прочее — ветер слов. И если мне кажется, что я жертвую вот этим поколением во имя счастья последующих, я просто-напросто жертвую людьми. Не этими и не теми, а всеми разом. Всех людей я обрекаю на злосчастье. Прочее — ветер слов. И если я воюю во имя мира, я укрепляю войну. С помощью войны не установить мира."
Антуан де Сент-Экзюпери. Цитадель
[Профиль]  [ЛС] 

тихон50

Стаж: 6 лет 8 месяцев

Сообщений: 1

Россия

post 08-Апр-2012 17:49 (спустя 5 месяцев 17 дней)

[Цитировать]  [] 

третий день качаю, сядьте на раздачу
[Профиль]  [ЛС] 
Показать сообщения:    
Ответить на тему

Текущее время: 19-Дек 02:09

Часовой пояс: GMT + 4



Вы не можете начинать темы
Вы не можете отвечать на сообщения
Вы не можете редактировать свои сообщения
Вы не можете удалять свои сообщения
Вы не можете голосовать в опросах
Вы не можете прикреплять файлы к сообщениям
Вы не можете скачивать файлы
[  Execution time: 0.292 sec  |  MySQL: 12 queries |  GZIP ON  |  Mem: 597.19 KB / 4.04 MB / 3.48 MB  |  Load: 0.7 2.1 2  ]