Loading...
Error

16 Great Praise & Worship Classics, Vol. 1 (2000) FLAC [Log/t​racks+.cue]

Статистика раздачи
Нет
 
     
 
 
Автор Сообщение

Pashakorg

Стаж: 7 лет 9 месяцев

Сообщений: 505

Украина

post 30-Июн-2011 20:41

[Цитировать]  [] 

16 Great Praise & Worship Classics, Vol. 1 (2000) FLAC [Log/t​racks+.cue]

Год выпуска: 2000
Выпущено: Daywind Music Group
Жанр: Praise & Worship
Исполнители: Various Artists

Треклист:
01 Lord I Lift Your Name on High
02 More Precious Than Silver
03 Give Me Jesus
04 I Could Sing of Your Love Forever
05 The Potter's Hand
06 Enemy's Camp
07 Send the Fire
08 Adonai
09 Open the Eyes of My Heart
10 Awesome God
11 Grace Alone
12 Mercy Seat
13 Redeemer
14 Prase His Name
15 Shout to the Lord
16 Change My Heart Oh God

ЛИЦЕНЗИЯ
Exact Audio Copy V0.99 prebeta 5 from 4. May 2009

Отчёт EAC об извлечении, выполненном 30. июня 2011, 16:33

Unknown Artist / Unknown Title

Дисковод: HL-DT-STDVDRAM GSA-4167B Adapter: 0 ID: 0

Режим чтения : Достоверность
Использование точного потока : Да
Отключение кэша аудио : Да
Использование указателей C2 : Нет

Коррекция смещения при чтении : 667
Способность читать области Lead-in и Lead-out : Нет
Заполнение пропущенных сэмплов тишиной : Да
Удаление блоков с тишиной в начале и конце : Нет
При вычислениях CRC использовались нулевые сэмплы : Нет
Интерфейс : Встроенный Win32-интерфейс для Win NT/2000
Обработка зазоров : Добавлено к предыдущему треку

Выходной формат : Пользовательский кодировщик
Выбранный битрейт : 1024 kBit/s
Качество : Высокий
Добавление ID3-тэга : Нет
Утилита сжатия : C:\Program Files\Exact Audio Copy\FLAC\FLAC.EXE
Дополнительные параметры : -8 -V -T "ARTIST=%a" -T "TITLE=%t" -T "ALBUM=%g" -T "DATE=%y" -T"TRACKNUMBER=%n" -T "GENRE=%m" -T "COMMENT=EAC FLAC -8" %s

TOC извлечённого CD

Трек | Старт | Длительность | Начальный сектор | Конечный сектор
---------------------------------------------------------------------
1 | 0:00.00 | 3:09.00 | 0 | 14174
2 | 3:09.00 | 3:59.00 | 14175 | 32099
3 | 7:08.00 | 3:49.00 | 32100 | 49274
4 | 10:57.00 | 3:41.00 | 49275 | 65849
5 | 14:38.00 | 7:09.00 | 65850 | 98024
6 | 21:47.00 | 2:19.00 | 98025 | 108449
7 | 24:06.00 | 4:41.00 | 108450 | 129524
8 | 28:47.00 | 3:53.00 | 129525 | 146999
9 | 32:40.00 | 4:11.00 | 147000 | 165824
10 | 36:51.00 | 2:45.00 | 165825 | 178199
11 | 39:36.00 | 4:33.00 | 178200 | 198674
12 | 44:09.00 | 4:05.00 | 198675 | 217049
13 | 48:14.00 | 4:33.00 | 217050 | 237524
14 | 52:47.00 | 4:39.00 | 237525 | 258449
15 | 57:26.00 | 4:15.00 | 258450 | 277574
16 | 61:41.00 | 4:02.00 | 277575 | 295724

Трек 1

Имя файла J:\Музыка\Сборник англ\16 Great Classics - Praise & Worship\Unknown Artist-Unknown Title01. Track01.wav

Длина предзазора 0:00:02.00

Пиковый уровень 99.9 %
Качество трека 100.0 %
CRC теста 7A272001
CRC копии 7A272001
Трек не обнаружен в базе AccurateRip
Копирование... OK

Трек 2

Имя файла J:\Музыка\Сборник англ\16 Great Classics - Praise & Worship\Unknown Artist-Unknown Title02. Track02.wav

Длина предзазора 0:00:03.00

Пиковый уровень 97.2 %
Качество трека 100.0 %
CRC теста B7C5B090
CRC копии B7C5B090
Трек не обнаружен в базе AccurateRip
Копирование... OK

Трек 3

Имя файла J:\Музыка\Сборник англ\16 Great Classics - Praise & Worship\Unknown Artist-Unknown Title03. Track03.wav

Длина предзазора 0:00:03.00

Пиковый уровень 99.6 %
Качество трека 100.0 %
CRC теста A50E8C5C
CRC копии A50E8C5C
Трек не обнаружен в базе AccurateRip
Копирование... OK

Трек 4

Имя файла J:\Музыка\Сборник англ\16 Great Classics - Praise & Worship\Unknown Artist-Unknown Title04. Track04.wav

Длина предзазора 0:00:03.00

Пиковый уровень 99.3 %
Качество трека 100.0 %
CRC теста AC5C123E
CRC копии AC5C123E
Трек не обнаружен в базе AccurateRip
Копирование... OK

Трек 5

Имя файла J:\Музыка\Сборник англ\16 Great Classics - Praise & Worship\Unknown Artist-Unknown Title05. Track05.wav

Длина предзазора 0:00:03.00

Пиковый уровень 95.0 %
Качество трека 99.9 %
CRC теста EB8CC67D
CRC копии EB8CC67D
Трек не обнаружен в базе AccurateRip
Копирование... OK

Трек 6

Имя файла J:\Музыка\Сборник англ\16 Great Classics - Praise & Worship\Unknown Artist-Unknown Title06. Track06.wav

Длина предзазора 0:00:03.00

Пиковый уровень 96.7 %
Качество трека 100.0 %
CRC теста EE41334D
CRC копии EE41334D
Трек не обнаружен в базе AccurateRip
Копирование... OK

Трек 7

Имя файла J:\Музыка\Сборник англ\16 Great Classics - Praise & Worship\Unknown Artist-Unknown Title07. Track07.wav

Длина предзазора 0:00:03.00

Пиковый уровень 98.8 %
Качество трека 100.0 %
CRC теста CE48740E
CRC копии CE48740E
Трек не обнаружен в базе AccurateRip
Копирование... OK

Трек 8

Имя файла J:\Музыка\Сборник англ\16 Great Classics - Praise & Worship\Unknown Artist-Unknown Title08. Track08.wav

Длина предзазора 0:00:03.00

Пиковый уровень 97.6 %
Качество трека 100.0 %
CRC теста 277033A1
CRC копии 277033A1
Трек не обнаружен в базе AccurateRip
Копирование... OK

Трек 9

Имя файла J:\Музыка\Сборник англ\16 Great Classics - Praise & Worship\Unknown Artist-Unknown Title09. Track09.wav

Длина предзазора 0:00:03.00

Пиковый уровень 97.7 %
Качество трека 100.0 %
CRC теста B0FC9A61
CRC копии B0FC9A61
Трек не обнаружен в базе AccurateRip
Копирование... OK

Трек 10

Имя файла J:\Музыка\Сборник англ\16 Great Classics - Praise & Worship\Unknown Artist-Unknown Title10. Track10.wav

Длина предзазора 0:00:03.00

Пиковый уровень 99.9 %
Качество трека 100.0 %
CRC теста 3100AD0D
CRC копии 3100AD0D
Трек не обнаружен в базе AccurateRip
Копирование... OK

Трек 11

Имя файла J:\Музыка\Сборник англ\16 Great Classics - Praise & Worship\Unknown Artist-Unknown Title11. Track11.wav

Длина предзазора 0:00:03.00

Пиковый уровень 99.4 %
Качество трека 100.0 %
CRC теста F12F22E0
CRC копии F12F22E0
Трек не обнаружен в базе AccurateRip
Копирование... OK

Трек 12

Имя файла J:\Музыка\Сборник англ\16 Great Classics - Praise & Worship\Unknown Artist-Unknown Title12. Track12.wav

Длина предзазора 0:00:03.00

Пиковый уровень 99.3 %
Качество трека 100.0 %
CRC теста D6EA295A
CRC копии D6EA295A
Трек не обнаружен в базе AccurateRip
Копирование... OK

Трек 13

Имя файла J:\Музыка\Сборник англ\16 Great Classics - Praise & Worship\Unknown Artist-Unknown Title13. Track13.wav

Длина предзазора 0:00:03.00

Пиковый уровень 97.6 %
Качество трека 100.0 %
CRC теста 3A6AFEC9
CRC копии 3A6AFEC9
Трек не обнаружен в базе AccurateRip
Копирование... OK

Трек 14

Имя файла J:\Музыка\Сборник англ\16 Great Classics - Praise & Worship\Unknown Artist-Unknown Title14. Track14.wav

Длина предзазора 0:00:03.00

Пиковый уровень 99.1 %
Качество трека 100.0 %
CRC теста D8903704
CRC копии D8903704
Трек не обнаружен в базе AccurateRip
Копирование... OK

Трек 15

Имя файла J:\Музыка\Сборник англ\16 Great Classics - Praise & Worship\Unknown Artist-Unknown Title15. Track15.wav

Длина предзазора 0:00:03.00

Пиковый уровень 99.0 %
Качество трека 99.9 %
CRC теста 895A889E
CRC копии 895A889E
Трек не обнаружен в базе AccurateRip
Копирование... OK

Трек 16

Имя файла J:\Музыка\Сборник англ\16 Great Classics - Praise & Worship\Unknown Artist-Unknown Title16. Track16.wav

Длина предзазора 0:00:03.00

Пиковый уровень 99.8 %
Качество трека 100.0 %
CRC теста 8645FAFA
CRC копии 8645FAFA
Трек не обнаружен в базе AccurateRip
Копирование... OK

Ни одного трека нет в базе AccurateRip

Ошибок не произошло

Конец отчёта
Аудио: FLAC, Lossless
Продолжительность: 01:05:43

_________________
"блаженнее давать, нежели принимать" - Деян.20:35
[Профиль]  [ЛС] 
Показать сообщения:    
Ответить на тему

Текущее время: 25-Сен 06:25

Часовой пояс: GMT + 4



Вы не можете начинать темы
Вы не можете отвечать на сообщения
Вы не можете редактировать свои сообщения
Вы не можете удалять свои сообщения
Вы не можете голосовать в опросах
Вы не можете прикреплять файлы к сообщениям
Вы не можете скачивать файлы
[  Execution time: 0.231 sec  |  MySQL: 11 queries |  GZIP ON  |  Mem: 597.55 KB / 4.04 MB / 3.49 MB  |  Load: 0.3 0.3 0.4  ]