Loading...
Error

Michael Card - The final word (1987) FLAC [Log/t​racks+.cue]

Статистика раздачи
Нет
 
     
 
 
Автор Сообщение

Pashakorg

Стаж: 7 лет 8 месяцев

Сообщений: 505

Украина

post 29-Июн-2011 15:03

[Цитировать]  [] 

Michael Card - The final word (1987) FLAC [Log/t​racks+.cue]

Год выпуска: 1987
Жанр: Christian Contemporary

Треклист:
01 To the Mystery
02 The Final Word
03 Spirit of the Age
04 Celebrate This Child
05 Joseph's Song
06 Overture to the Trilogy
07 The Promise
08 Immanuel
09 Carmen Christi
10 Joy in the Journey

Лицензия
Exact Audio Copy V0.99 prebeta 5 from 4. May 2009

Отчёт EAC об извлечении, выполненном 29. июня 2011, 13:38

Michael Card / The final word

Дисковод: HL-DT-STDVDRAM GSA-4167B Adapter: 0 ID: 0

Режим чтения : Достоверность
Использование точного потока : Да
Отключение кэша аудио : Да
Использование указателей C2 : Нет

Коррекция смещения при чтении : 667
Способность читать области Lead-in и Lead-out : Нет
Заполнение пропущенных сэмплов тишиной : Да
Удаление блоков с тишиной в начале и конце : Нет
При вычислениях CRC использовались нулевые сэмплы : Нет
Интерфейс : Встроенный Win32-интерфейс для Win NT/2000
Обработка зазоров : Добавлено к предыдущему треку

Выходной формат : Пользовательский кодировщик
Выбранный битрейт : 1024 kBit/s
Качество : Высокий
Добавление ID3-тэга : Нет
Утилита сжатия : C:\Program Files\Exact Audio Copy\FLAC\FLAC.EXE
Дополнительные параметры : -8 -V -T "ARTIST=%a" -T "TITLE=%t" -T "ALBUM=%g" -T "DATE=%y" -T"TRACKNUMBER=%n" -T "GENRE=%m" -T "COMMENT=EAC FLAC -8" %s

TOC извлечённого CD

Трек | Старт | Длительность | Начальный сектор | Конечный сектор
---------------------------------------------------------------------
1 | 0:00.00 | 3:58.28 | 0 | 17877
2 | 3:58.28 | 3:32.65 | 17878 | 33842
3 | 7:31.18 | 4:16.25 | 33843 | 53067
4 | 11:47.43 | 3:34.45 | 53068 | 69162
5 | 15:22.13 | 3:32.57 | 69163 | 85119
6 | 18:54.70 | 3:43.63 | 85120 | 101907
7 | 22:38.58 | 2:33.25 | 101908 | 113407
8 | 25:12.08 | 4:05.35 | 113408 | 131817
9 | 29:17.43 | 2:50.70 | 131818 | 144637
10 | 32:08.38 | 3:01.70 | 144638 | 158282

Трек 1

Имя файла J:\Музыка\Сборник англ\Michael Card\The final word [Flac]\Michael Card-The final word01. Track01.wav

Длина предзазора 0:00:02.00

Пиковый уровень 82.2 %
Качество трека 100.0 %
CRC теста E6851757
CRC копии E6851757
Точное извлечение (достоверность 1) [07FA6E9E]
Копирование... OK

Трек 2

Имя файла J:\Музыка\Сборник англ\Michael Card\The final word [Flac]\Michael Card-The final word02. Track02.wav

Длина предзазора 0:00:00.63

Пиковый уровень 86.2 %
Качество трека 99.9 %
CRC теста 91914F5F
CRC копии 91914F5F
Точное извлечение (достоверность 1) [797E8E77]
Копирование... OK

Трек 3

Имя файла J:\Музыка\Сборник англ\Michael Card\The final word [Flac]\Michael Card-The final word03. Track03.wav

Длина предзазора 0:00:00.28

Пиковый уровень 100.0 %
Качество трека 99.9 %
CRC теста 26CE4B47
CRC копии 26CE4B47
Точное извлечение (достоверность 1) [A9BF161E]
Копирование... OK

Трек 4

Имя файла J:\Музыка\Сборник англ\Michael Card\The final word [Flac]\Michael Card-The final word04. Track04.wav

Длина предзазора 0:00:01.20

Пиковый уровень 100.0 %
Качество трека 100.0 %
CRC теста 3E33E124
CRC копии 3E33E124
Точное извлечение (достоверность 1) [33378CD2]
Копирование... OK

Трек 5

Имя файла J:\Музыка\Сборник англ\Michael Card\The final word [Flac]\Michael Card-The final word05. Track05.wav

Длина предзазора 0:00:00.48

Пиковый уровень 82.5 %
Качество трека 100.0 %
CRC теста 7A774A6D
CRC копии 7A774A6D
Точное извлечение (достоверность 1) [E0C5094F]
Копирование... OK

Трек 6

Имя файла J:\Музыка\Сборник англ\Michael Card\The final word [Flac]\Michael Card-The final word06. Track06.wav

Длина предзазора 0:00:02.40

Пиковый уровень 81.5 %
Качество трека 100.0 %
CRC теста 89F9D6F0
CRC копии 89F9D6F0
Точное извлечение (достоверность 1) [D41B158D]
Копирование... OK

Трек 7

Имя файла J:\Музыка\Сборник англ\Michael Card\The final word [Flac]\Michael Card-The final word07. Track07.wav

Длина предзазора 0:00:00.68

Пиковый уровень 82.2 %
Качество трека 100.0 %
CRC теста 0ACC46DC
CRC копии 0ACC46DC
Точное извлечение (достоверность 1) [8B25A274]
Копирование... OK

Трек 8

Имя файла J:\Музыка\Сборник англ\Michael Card\The final word [Flac]\Michael Card-The final word08. Track08.wav

Длина предзазора 0:00:01.20

Пиковый уровень 81.8 %
Качество трека 100.0 %
CRC теста 83AAF343
CRC копии 83AAF343
Точное извлечение (достоверность 1) [347BC759]
Копирование... OK

Трек 9

Имя файла J:\Музыка\Сборник англ\Michael Card\The final word [Flac]\Michael Card-The final word09. Track09.wav

Пиковый уровень 89.0 %
Качество трека 100.0 %
CRC теста F2259709
CRC копии F2259709
Точное извлечение (достоверность 1) [1D9E52F0]
Копирование... OK

Трек 10

Имя файла J:\Музыка\Сборник англ\Michael Card\The final word [Flac]\Michael Card-The final word10. Track10.wav

Длина предзазора 0:00:01.10

Пиковый уровень 66.4 %
Качество трека 100.0 %
CRC теста 93CDBFDA
CRC копии 93CDBFDA
Точное извлечение (достоверность 1) [72669FFE]
Копирование... OK

Все треки извлечены точно

Ошибок не произошло

Конец отчёта
Аудио: FLAC, Lossless
Продолжительность: 00:35:10

_________________
"блаженнее давать, нежели принимать" - Деян.20:35
[Профиль]  [ЛС] 
Показать сообщения:    
Ответить на тему

Текущее время: 21-Авг 04:59

Часовой пояс: GMT + 4



Вы не можете начинать темы
Вы не можете отвечать на сообщения
Вы не можете редактировать свои сообщения
Вы не можете удалять свои сообщения
Вы не можете голосовать в опросах
Вы не можете прикреплять файлы к сообщениям
Вы не можете скачивать файлы
[  Execution time: 2.268 sec  |  MySQL: 15 queries |  GZIP ON  |  Mem: 597.24 KB / 4.04 MB / 3.48 MB  |  Load: 0.3 0.4 0.7  ]