Loading...
Error

Steven Curtis Chapman - All about love (2003) FLAC, Lossless [Log/t​racks+.cue]

Статистика раздачи
Нет
 
     
 
 
Автор Сообщение

Pashakorg

Стаж: 7 лет 8 месяцев

Сообщений: 505

Украина

post 09-Апр-2011 01:19

[Цитировать]  [] 

Steven Curtis Chapman - All about love (2003)

Исполнитель: Steven Curtis Chapman
Альбом: All about love
Год выпуска: 2003
Жанр: Christian music
Производство: Sparrow Records

Tреклист:
01 "All About Love"
02 "Your Side of the World"
03 "How Do I Love Her"
04 "11-6-64"
05 "You've Got Me"
06 "I'm Gonna Be (500 Miles)"(Reid, Reid)
07 "Echoes of Eden"
08 "Holding a Mystery"
09 "We Will Dance"
10 "We Belong Together (Tarzan and Jane)"
11 "With Every Little Kiss"
12 "Miracle of You"
13 "I'll Take Care of You"(Glen Sutton, Jordan)
14 "I Will Be Here"
15 "Moment Made for Worshiping"
16 "When Love Takes You In"

Аудио: Flac, Lossless
Продолжительность: 01:07:29
Exact Audio Copy V0.99 prebeta 5 from 4. May 2009

Отчёт EAC об извлечении, выполненном 8. апреля 2011, 13:47

Steven Curtis Chapman / All about love

Дисковод: HL-DT-STDVDRAM GSA-4167B Adapter: 0 ID: 0

Режим чтения : Достоверность
Использование точного потока : Да
Отключение кэша аудио : Да
Использование указателей C2 : Нет

Комбинированное смещение чтения/записи : 0
Способность читать области Lead-in и Lead-out : Нет
Заполнение пропущенных сэмплов тишиной : Да
Удаление блоков с тишиной в начале и конце : Нет
При вычислениях CRC использовались нулевые сэмплы : Нет
Интерфейс : Встроенный Win32-интерфейс для Win NT/2000
Обработка зазоров : Добавлено к предыдущему треку

Выходной формат : Пользовательский кодировщик
Выбранный битрейт : 1024 kBit/s
Качество : Высокий
Добавление ID3-тэга : Нет
Утилита сжатия : C:\Program Files\Exact Audio Copy\FLAC\FLAC.EXE
Дополнительные параметры : -8 -V -T "ARTIST=%a" -T "TITLE=%t" -T "ALBUM=%g" -T "DATE=%y" -T"TRACKNUMBER=%n" -T "GENRE=%m" -T "COMMENT=EAC FLAC -8" %s

TOC извлечённого CD

Трек | Старт | Длительность | Начальный сектор | Конечный сектор
---------------------------------------------------------------------
1 | 0:00.00 | 3:42.70 | 0 | 16719
2 | 3:42.70 | 4:25.00 | 16720 | 36594
3 | 8:07.70 | 4:57.50 | 36595 | 58919
4 | 13:05.45 | 3:07.25 | 58920 | 72969
5 | 16:12.70 | 3:45.22 | 72970 | 89866
6 | 19:58.17 | 3:44.15 | 89867 | 106681
7 | 23:42.32 | 5:04.35 | 106682 | 129516
8 | 28:46.67 | 4:22.00 | 129517 | 149166
9 | 33:08.67 | 4:40.65 | 149167 | 170231
10 | 37:49.57 | 3:16.18 | 170232 | 184949
11 | 41:06.00 | 3:13.17 | 184950 | 199441
12 | 44:19.17 | 3:35.18 | 199442 | 215584
13 | 47:54.35 | 4:23.55 | 215585 | 235364
14 | 52:18.15 | 4:13.00 | 235365 | 254339
15 | 56:31.15 | 6:10.65 | 254340 | 282154
16 | 62:42.05 | 4:47.07 | 282155 | 303686

Трек 1

Имя файла J:\Музыка\Сборник англ\Steven Curtis Chapman\Steven Curtis Chapman-All about love01. Track01.wav

Длина предзазора 0:00:02.00

Пиковый уровень 99.8 %
Качество трека 100.0 %
CRC теста FC2B3722
CRC копии FC2B3722
Копирование... OK

Трек 2

Имя файла J:\Музыка\Сборник англ\Steven Curtis Chapman\Steven Curtis Chapman-All about love02. Track02.wav

Длина предзазора 0:00:00.13

Пиковый уровень 99.8 %
Качество трека 99.9 %
CRC теста 66CA8173
CRC копии 66CA8173
Копирование... OK

Трек 3

Имя файла J:\Музыка\Сборник англ\Steven Curtis Chapman\Steven Curtis Chapman-All about love03. Track03.wav

Длина предзазора 0:00:01.18

Пиковый уровень 99.8 %
Качество трека 100.0 %
CRC теста 71C3A967
CRC копии 71C3A967
Копирование... OK

Трек 4

Имя файла J:\Музыка\Сборник англ\Steven Curtis Chapman\Steven Curtis Chapman-All about love04. Track04.wav

Пиковый уровень 92.0 %
Качество трека 100.0 %
CRC теста 9AC73295
CRC копии 9AC73295
Копирование... OK

Трек 5

Имя файла J:\Музыка\Сборник англ\Steven Curtis Chapman\Steven Curtis Chapman-All about love05. Track05.wav

Длина предзазора 0:00:00.15

Пиковый уровень 99.8 %
Качество трека 100.0 %
CRC теста 218D0ADE
CRC копии 218D0ADE
Копирование... OK

Трек 6

Имя файла J:\Музыка\Сборник англ\Steven Curtis Chapman\Steven Curtis Chapman-All about love06. Track06.wav

Пиковый уровень 99.7 %
Качество трека 100.0 %
CRC теста F908929B
CRC копии F908929B
Копирование... OK

Трек 7

Имя файла J:\Музыка\Сборник англ\Steven Curtis Chapman\Steven Curtis Chapman-All about love07. Track07.wav

Длина предзазора 0:00:00.45

Пиковый уровень 94.1 %
Качество трека 100.0 %
CRC теста 8A61923D
CRC копии 8A61923D
Копирование... OK

Трек 8

Имя файла J:\Музыка\Сборник англ\Steven Curtis Chapman\Steven Curtis Chapman-All about love08. Track08.wav

Пиковый уровень 99.8 %
Качество трека 99.9 %
CRC теста D0C136BD
CRC копии D0C136BD
Копирование... OK

Трек 9

Имя файла J:\Музыка\Сборник англ\Steven Curtis Chapman\Steven Curtis Chapman-All about love09. Track09.wav

Пиковый уровень 99.8 %
Качество трека 100.0 %
CRC теста 47D7C5E7
CRC копии 47D7C5E7
Копирование... OK

Трек 10

Имя файла J:\Музыка\Сборник англ\Steven Curtis Chapman\Steven Curtis Chapman-All about love10. Track10.wav

Длина предзазора 0:00:01.42

Пиковый уровень 99.7 %
Качество трека 99.9 %
CRC теста 478A5E8E
CRC копии 478A5E8E
Копирование... OK

Трек 11

Имя файла J:\Музыка\Сборник англ\Steven Curtis Chapman\Steven Curtis Chapman-All about love11. Track11.wav

Длина предзазора 0:00:00.35

Пиковый уровень 99.7 %
Качество трека 100.0 %
CRC теста C4E1EBBC
CRC копии C4E1EBBC
Копирование... OK

Трек 12

Имя файла J:\Музыка\Сборник англ\Steven Curtis Chapman\Steven Curtis Chapman-All about love12. Track12.wav

Пиковый уровень 99.8 %
Качество трека 100.0 %
CRC теста 1B80EEC6
CRC копии 1B80EEC6
Копирование... OK

Трек 13

Имя файла J:\Музыка\Сборник англ\Steven Curtis Chapman\Steven Curtis Chapman-All about love13. Track13.wav

Длина предзазора 0:00:01.25

Пиковый уровень 83.9 %
Качество трека 100.0 %
CRC теста 2344F1DA
CRC копии 2344F1DA
Копирование... OK

Трек 14

Имя файла J:\Музыка\Сборник англ\Steven Curtis Chapman\Steven Curtis Chapman-All about love14. Track14.wav

Длина предзазора 0:00:00.45

Пиковый уровень 99.7 %
Качество трека 100.0 %
CRC теста F1348696
CRC копии F1348696
Копирование... OK

Трек 15

Имя файла J:\Музыка\Сборник англ\Steven Curtis Chapman\Steven Curtis Chapman-All about love15. Track15.wav

Пиковый уровень 99.7 %
Качество трека 100.0 %
CRC теста 748FE40E
CRC копии 748FE40E
Копирование... OK

Трек 16

Имя файла J:\Музыка\Сборник англ\Steven Curtis Chapman\Steven Curtis Chapman-All about love16. Track16.wav

Длина предзазора 0:00:01.43

Пиковый уровень 97.3 %
Качество трека 100.0 %
CRC теста E9135AC3
CRC копии E9135AC3
Копирование... OK

Ошибок не произошло

Конец отчёта

_________________
"блаженнее давать, нежели принимать" - Деян.20:35
[Профиль]  [ЛС] 
Показать сообщения:    
Ответить на тему

Текущее время: 21-Авг 05:06

Часовой пояс: GMT + 4



Вы не можете начинать темы
Вы не можете отвечать на сообщения
Вы не можете редактировать свои сообщения
Вы не можете удалять свои сообщения
Вы не можете голосовать в опросах
Вы не можете прикреплять файлы к сообщениям
Вы не можете скачивать файлы
[  Execution time: 0.285 sec  |  MySQL: 11 queries |  GZIP ON  |  Mem: 597.24 KB / 4.04 MB / 3.48 MB  |  Load: 0.5 0.5 0.6  ]