Loading...
Error

Harvest Worship Team - Deeper Live 2010 (2010) FLAC, Lossless [Secure/Log/tracks+.cue]

Статистика раздачи
Нет
 
     
 
 
Автор Сообщение

Aleksey

Стаж: 8 лет 11 месяцев

Сообщений: 1205

Откуда: отсюда :)

post 27-Фев-2011 06:12

[Цитировать]  [] 

Исполнитель: Harvest Worship Team
Альбом: Deeper Live 2010
Год выпуска: 2010
Жанр: Praise & Worship, Prophetic Worship
Производство: Harvest Church

Tреклист:
01. Today Is The Day
02. On Happy Day
03. Happy Day
04. We Give You Glory
05. Niemand Soos U
06. Hearts Of The Saints
07. In Die Hemel Is Die Heer
08. Yahweh
09. I See Grace
10. Lord, You are My Evertyyhing
11. Breathe
12. Revelation Song
13. Crown Him With Many Crowns
14. In Christ Alone

Дополнительно:
Наличие всех логов, сканов и спектров. Релиз специально от меня, подарок для трекера Благословений Божьих!

Аудио: Flac, Lossless
Продолжительность: 01:19:29
Exact Audio Copy V1.0 beta 1 from 15. November 2010

EAC extraction logfile from 26. February 2011, 14:12

Harvest Worship Team / Deeper Live 2010

Used drive : HL-DT-STDVDRAM GH22NS40 Adapter: 0 ID: 2

Read mode : Secure
Utilize accurate stream : Yes
Defeat audio cache : No
Make use of C2 pointers : Yes

Combined read/write offset correction : 0
Overread into Lead-In and Lead-Out : No
Fill up missing offset samples with silence : Yes
Delete leading and trailing silent blocks : No
Null samples used in CRC calculations : No
Used interface : Native Win32 interface for Win NT & 2000
Gap handling : Not detected, thus appended to previous track

Used output format : User Defined Encoder
Selected bitrate : 1024 kBit/s
Quality : High
Add ID3 tag : Yes
Command line compressor : C:\Program Files (x86)\Exact Audio Copy\FLAC\FLAC.EXE
Additional command line options : -6 -V -T "ARTIST=%a" -T "TITLE=%t" -T "ALBUM=%g" -T "DATE=%y" -T "TRACKNUMBER=%n" -T "GENRE=%m" -T "COMMENT=%e" %j--picture="%i"%j %s -o %d

TOC of the extracted CD

Track | Start | Length | Start sector | End sector
---------------------------------------------------------
1 | 0:00.00 | 4:16.43 | 0 | 19242
2 | 4:16.43 | 1:55.72 | 19243 | 27939
3 | 6:12.40 | 3:29.57 | 27940 | 43671
4 | 9:42.22 | 3:32.50 | 43672 | 59621
5 | 13:14.72 | 5:51.45 | 59622 | 85991
6 | 19:06.42 | 6:39.00 | 85992 | 115916
7 | 25:45.42 | 4:59.09 | 115917 | 138350
8 | 30:44.51 | 6:34.14 | 138351 | 167914
9 | 37:18.65 | 6:22.68 | 167915 | 196632
10 | 43:41.58 | 5:40.28 | 196633 | 222160
11 | 49:22.11 | 6:07.14 | 222161 | 249699
12 | 55:29.25 | 13:29.10 | 249700 | 310384
13 | 68:58.35 | 4:44.10 | 310385 | 331694
14 | 73:42.45 | 5:45.50 | 331695 | 357619

Track 1

Filename C:\Users\Administrator\Music\01 - Today Is The Day.wav

Peak level 96.6 %
Extraction speed 15.9 X
Track quality 99.9 %
Copy CRC A68510F4
Copy OK

Track 2

Filename C:\Users\Administrator\Music\02 - On Happy Day.wav

Peak level 94.7 %
Extraction speed 15.7 X
Track quality 100.0 %
Copy CRC 4B710D0E
Copy OK

Track 3

Filename C:\Users\Administrator\Music\03 - Happy Day.wav

Peak level 96.6 %
Extraction speed 20.7 X
Track quality 100.0 %
Copy CRC 97C4884E
Copy OK

Track 4

Filename C:\Users\Administrator\Music\04 - We Give You Glory.wav

Peak level 96.6 %
Extraction speed 22.1 X
Track quality 100.0 %
Copy CRC 13603B73
Copy OK

Track 5

Filename C:\Users\Administrator\Music\05 - Niemand Soos U.wav

Peak level 96.6 %
Extraction speed 23.9 X
Track quality 100.0 %
Copy CRC 7D84F84B
Copy OK

Track 6

Filename C:\Users\Administrator\Music\06 - Hearts Of The Saints.wav

Peak level 96.6 %
Extraction speed 24.4 X
Track quality 100.0 %
Copy CRC E8A57649
Copy OK

Track 7

Filename C:\Users\Administrator\Music\07 - In Die Hemel Is Die Heer.wav

Peak level 96.6 %
Extraction speed 27.7 X
Track quality 100.0 %
Copy CRC 87875C42
Copy OK

Track 8

Filename C:\Users\Administrator\Music\08 - Yahweh.wav

Peak level 96.6 %
Extraction speed 27.4 X
Track quality 100.0 %
Copy CRC 5397AE6E
Copy OK

Track 9

Filename C:\Users\Administrator\Music\09 - I See Grace.wav

Peak level 95.5 %
Extraction speed 31.3 X
Track quality 100.0 %
Copy CRC 176BC2F3
Copy OK

Track 10

Filename C:\Users\Administrator\Music\10 - Lord, You are My Evertyyhing.wav

Peak level 96.6 %
Extraction speed 30.0 X
Track quality 100.0 %
Copy CRC 37B2F866
Copy OK

Track 11

Filename C:\Users\Administrator\Music\11 - Breathe.wav

Peak level 94.6 %
Extraction speed 30.4 X
Track quality 99.9 %
Copy CRC DCA41E33
Copy OK

Track 12

Filename C:\Users\Administrator\Music\12 - Revelation Song.wav

Peak level 96.6 %
Extraction speed 35.2 X
Track quality 100.0 %
Copy CRC 78F68D97
Copy OK

Track 13

Filename C:\Users\Administrator\Music\13 - Crown Him With Many Crowns.wav

Peak level 96.6 %
Extraction speed 38.3 X
Track quality 100.0 %
Copy CRC 2209A5D8
Copy OK

Track 14

Filename C:\Users\Administrator\Music\14 - In Christ Alone.wav

Peak level 96.6 %
Extraction speed 35.7 X
Track quality 100.0 %
Copy CRC 1B8CE3A0
Copy OK

No errors occurred

End of status report

==== Log checksum D23DF9CC156EC4F4F7CB236AACC9DABD4450AFF2206EA82171C6554F5E9C9B22 ====

_________________
"И напрасно я стану уверять, что сегодняшнее насилие создаст свободу завтра, — я внедряю только насилие. С жизнью не слукавишь. Не обманешь дерево, оно потянется туда, куда его направят. Прочее — ветер слов. И если мне кажется, что я жертвую вот этим поколением во имя счастья последующих, я просто-напросто жертвую людьми. Не этими и не теми, а всеми разом. Всех людей я обрекаю на злосчастье. Прочее — ветер слов. И если я воюю во имя мира, я укрепляю войну. С помощью войны не установить мира."
Антуан де Сент-Экзюпери. Цитадель


Последний раз редактировалось: Aleksey (2011-03-02 07:56), всего редактировалось 1 раз
[Профиль]  [ЛС] 

Aleksey

Стаж: 8 лет 11 месяцев

Сообщений: 1205

Откуда: отсюда :)

post 02-Мар-2011 07:49 (спустя 3 дня)

[Цитировать]  [] 

народ! налетай!!!!! такое благословение пропускаете. удивляюсь,.. честное слово.

_________________
"И напрасно я стану уверять, что сегодняшнее насилие создаст свободу завтра, — я внедряю только насилие. С жизнью не слукавишь. Не обманешь дерево, оно потянется туда, куда его направят. Прочее — ветер слов. И если мне кажется, что я жертвую вот этим поколением во имя счастья последующих, я просто-напросто жертвую людьми. Не этими и не теми, а всеми разом. Всех людей я обрекаю на злосчастье. Прочее — ветер слов. И если я воюю во имя мира, я укрепляю войну. С помощью войны не установить мира."
Антуан де Сент-Экзюпери. Цитадель
[Профиль]  [ЛС] 
Показать сообщения:    
Ответить на тему

Текущее время: 21-Авг 05:00

Часовой пояс: GMT + 4



Вы не можете начинать темы
Вы не можете отвечать на сообщения
Вы не можете редактировать свои сообщения
Вы не можете удалять свои сообщения
Вы не можете голосовать в опросах
Вы не можете прикреплять файлы к сообщениям
Вы не можете скачивать файлы
[  Execution time: 0.194 sec  |  MySQL: 11 queries |  GZIP ON  |  Mem: 597.24 KB / 4.01 MB / 3.45 MB  |  Load: 0.5 0.5 0.6  ]