Loading...
Error

Celtic Woman - Songs From The Heart - 2010, FLAC, Lossless (tracks+.cue)

Статистика раздачи
Нет
 
     
 
 
Автор Сообщение

Blessing

Стаж: 8 лет 4 месяца

Сообщений: 2572

post 30-Окт-2010 01:30

[Цитировать]  [] 

Celtic Woman - Songs From The Heart - 2010

Жанр: Celtic / Folk
Год выпуска : 2010
Лейбл: Manhattan Records
Аудио кодек: FLAC
Тип рипа: tracks+.cue
Битрейт аудио: lossless
Продолжительность: 00:56:02
Рип: SynthEclipse - What CD

01. Fields Of Gold (3:52)
02. Amazing Grace (4:59)
03. Nil Sé'n Lá (3:38)
04. My Lagan Love (2:52)
05. When You Believe (4:31)
06. The New Ground - Isle Of Hope, Isle Of Tears (6:42)
07. The Coast Of Galiçia (3:37)
08. Non C'è Più (4:51)
09. The Moon's A Harsh Mistress (3:17)
10. You'll Be In My Heart (4:02)
11. Goodnight My Angel (3:16)
12. Galway Bay (4:16)
13. The Lost Rose Fantasia (2:20)
14. O, America! (3:49)

DVD5 - Здесь
Exact Audio Copy V0.99 prebeta 5 from 4. May 2009

EAC extraction logfile from 19. March 2010, 19:22

Celtic Woman / Songs From The Heart

Used drive : ATAPI DVD A DH16A1L Adapter: 1 ID: 0

Read mode : Secure
Utilize accurate stream : Yes
Defeat audio cache : Yes
Make use of C2 pointers : No

Read offset correction : 6
Overread into Lead-In and Lead-Out : No
Fill up missing offset samples with silence : Yes
Delete leading and trailing silent blocks : No
Null samples used in CRC calculations : Yes
Used interface : Native Win32 interface for Win NT & 2000
Gap handling : Appended to previous track

Used output format : User Defined Encoder
Selected bitrate : 128 kBit/s
Quality : High
Add ID3 tag : No
Command line compressor : C:\Program Files (x86)\Exact Audio Copy\Flac\flac.exe
Additional command line options : -V -8 -T "artist=%a" -T "title=%t" -T "album=%g" -T "date=%y" -T "tracknumber=%n" -T "genre=%m" %s

TOC of the extracted CD

Track | Start | Length | Start sector | End sector
---------------------------------------------------------
1 | 0:00.00 | 3:51.55 | 0 | 17379
2 | 3:51.55 | 4:58.68 | 17380 | 39797
3 | 8:50.48 | 3:37.50 | 39798 | 56122
4 | 12:28.23 | 2:52.16 | 56123 | 69038
5 | 15:20.39 | 4:30.50 | 69039 | 89338
6 | 19:51.14 | 6:41.70 | 89339 | 119483
7 | 26:33.09 | 3:37.12 | 119484 | 135770
8 | 30:10.21 | 4:50.67 | 135771 | 157587
9 | 35:01.13 | 3:17.22 | 157588 | 172384
10 | 38:18.35 | 4:02.28 | 172385 | 190562
11 | 42:20.63 | 3:16.06 | 190563 | 205268
12 | 45:36.69 | 4:16.14 | 205269 | 224482
13 | 49:53.08 | 2:20.20 | 224483 | 235002
14 | 52:13.28 | 3:49.04 | 235003 | 252181

Track 1

Filename C:\EAC\01 - Fields Of Gold.wav

Pre-gap length 0:00:02.00

Peak level 98.0 %
Track quality 100.0 %
Test CRC 18996F0C
Copy CRC 18996F0C
Accurately ripped (confidence 4) [F544782E]
Copy OK

Track 2

Filename C:\EAC\02 - Amazing Grace.wav

Pre-gap length 0:00:02.09

Peak level 100.0 %
Track quality 100.0 %
Test CRC 29160C04
Copy CRC 29160C04
Accurately ripped (confidence 4) [CC91CEDB]
Copy OK

Track 3

Filename C:\EAC\03 - Nil Sй'n Lб.wav

Pre-gap length 0:00:02.68

Peak level 100.0 %
Track quality 100.0 %
Test CRC F3DBF12F
Copy CRC F3DBF12F
Accurately ripped (confidence 4) [B5C2BE84]
Copy OK

Track 4

Filename C:\EAC\04 - My Lagan Love.wav

Pre-gap length 0:00:02.56

Peak level 79.0 %
Track quality 100.0 %
Test CRC 2B1BD21E
Copy CRC 2B1BD21E
Accurately ripped (confidence 4) [01B00F6C]
Copy OK

Track 5

Filename C:\EAC\05 - When You Believe.wav

Pre-gap length 0:00:01.85

Peak level 99.4 %
Track quality 100.0 %
Test CRC 702AEA2F
Copy CRC 702AEA2F
Accurately ripped (confidence 4) [03F69C6F]
Copy OK

Track 6

Filename C:\EAC\06 - The New Ground - Isle Of Hope, Isle Of Tears.wav

Pre-gap length 0:00:01.57

Peak level 100.0 %
Track quality 100.0 %
Test CRC A4713F19
Copy CRC A4713F19
Accurately ripped (confidence 4) [B6DB6C3B]
Copy OK

Track 7

Filename C:\EAC\07 - The Coast Of Galiзia.wav

Pre-gap length 0:00:02.21

Peak level 100.0 %
Track quality 99.9 %
Test CRC DF9CE91B
Copy CRC DF9CE91B
Accurately ripped (confidence 4) [821D3BDB]
Copy OK

Track 8

Filename C:\EAC\08 - Non C'и Piщ.wav

Pre-gap length 0:00:01.26

Peak level 98.2 %
Track quality 99.9 %
Test CRC D8E9EFB4
Copy CRC D8E9EFB4
Accurately ripped (confidence 4) [CBAEF80B]
Copy OK

Track 9

Filename C:\EAC\09 - The Moon's A Harsh Mistress.wav

Pre-gap length 0:00:02.17

Peak level 97.4 %
Track quality 100.0 %
Test CRC B51CCB51
Copy CRC B51CCB51
Accurately ripped (confidence 4) [310FE1D2]
Copy OK

Track 10

Filename C:\EAC\10 - You'll Be In My Heart.wav

Pre-gap length 0:00:02.65

Peak level 100.0 %
Track quality 100.0 %
Test CRC 8CA0DCA1
Copy CRC 8CA0DCA1
Accurately ripped (confidence 4) [02D97855]
Copy OK

Track 11

Filename C:\EAC\11 - Goodnight My Angel.wav

Pre-gap length 0:00:01.45

Peak level 96.5 %
Track quality 100.0 %
Test CRC 89A4C871
Copy CRC 89A4C871
Accurately ripped (confidence 4) [0C941416]
Copy OK

Track 12

Filename C:\EAC\12 - Galway Bay.wav

Pre-gap length 0:00:02.66

Peak level 97.1 %
Track quality 100.0 %
Test CRC 0B67A014
Copy CRC 0B67A014
Accurately ripped (confidence 4) [D363801C]
Copy OK

Track 13

Filename C:\EAC\13 - The Lost Rose Fantasia.wav

Pre-gap length 0:00:01.92

Peak level 86.5 %
Track quality 100.0 %
Test CRC F373F4B6
Copy CRC F373F4B6
Accurately ripped (confidence 4) [04ABFAC0]
Copy OK

Track 14

Filename C:\EAC\14 - O, America!.wav

Pre-gap length 0:00:02.33

Peak level 100.0 %
Track quality 100.0 %
Test CRC 16EB9C02
Copy CRC 16EB9C02
Accurately ripped (confidence 4) [9222055D]
Copy OK

All tracks accurately ripped

No errors occurred

End of status report
REM GENRE "Celtic"
REM DATE 2010
REM DISCID AC0D220E
REM COMMENT "ExactAudioCopy v0.99pb5"
PERFORMER "Celtic Woman"
TITLE "Songs From The Heart"
FILE "01 - Fields Of Gold.wav" WAVE
TRACK 01 AUDIO
TITLE "Fields Of Gold"
PERFORMER "Celtic Woman"
INDEX 01 00:00:00
TRACK 02 AUDIO
TITLE "Amazing Grace"
PERFORMER "Celtic Woman"
INDEX 00 03:49:48
FILE "02 - Amazing Grace.wav" WAVE
INDEX 01 00:00:00
TRACK 03 AUDIO
TITLE "Nil Se'n La"
PERFORMER "Celtic Woman"
INDEX 00 04:56:17
FILE "03 - Nil Se'n La.wav" WAVE
INDEX 01 00:00:00
TRACK 04 AUDIO
TITLE "My Lagan Love"
PERFORMER "Celtic Woman"
INDEX 00 03:35:08
FILE "04 - My Lagan Love.wav" WAVE
INDEX 01 00:00:00
TRACK 05 AUDIO
TITLE "When You Believe"
PERFORMER "Celtic Woman"
INDEX 00 02:50:27
FILE "05 - When You Believe.wav" WAVE
INDEX 01 00:00:00
TRACK 06 AUDIO
TITLE "The New Ground - Isle Of Hope, Isle Of Tears"
PERFORMER "Celtic Woman"
INDEX 00 04:29:07
FILE "06 - The New Ground - Isle Of Hope, Isle Of Tears.wav" WAVE
INDEX 01 00:00:00
TRACK 07 AUDIO
TITLE "The Coast Of Galicia"
PERFORMER "Celtic Woman"
INDEX 00 06:39:54
FILE "07 - The Coast Of Galicia.wav" WAVE
INDEX 01 00:00:00
TRACK 08 AUDIO
TITLE "Non C'e Piu"
PERFORMER "Celtic Woman"
INDEX 00 03:35:67
FILE "08 - Non C'e Piu.wav" WAVE
INDEX 01 00:00:00
TRACK 09 AUDIO
TITLE "The Moon's A Harsh Mistress"
PERFORMER "Celtic Woman"
INDEX 00 04:48:54
FILE "09 - The Moon's A Harsh Mistress.wav" WAVE
INDEX 01 00:00:00
TRACK 10 AUDIO
TITLE "You'll Be In My Heart"
PERFORMER "Celtic Woman"
INDEX 00 03:14:48
FILE "10 - You'll Be In My Heart.wav" WAVE
INDEX 01 00:00:00
TRACK 11 AUDIO
TITLE "Goodnight My Angel"
PERFORMER "Celtic Woman"
INDEX 00 04:00:69
FILE "11 - Goodnight My Angel.wav" WAVE
INDEX 01 00:00:00
TRACK 12 AUDIO
TITLE "Galway Bay"
PERFORMER "Celtic Woman"
INDEX 00 03:13:31
FILE "12 - Galway Bay.wav" WAVE
INDEX 01 00:00:00
TRACK 13 AUDIO
TITLE "The Lost Rose Fantasia"
PERFORMER "Celtic Woman"
INDEX 00 04:14:20
FILE "13 - The Lost Rose Fantasia.wav" WAVE
INDEX 01 00:00:00
TRACK 14 AUDIO
TITLE "O, America!"
PERFORMER "Celtic Woman"
INDEX 00 02:17:70
FILE "14 - O, America!.wav" WAVE
INDEX 01 00:00:00
Started at: пятница, 07. 05. 2010. - 20:18.43

14 files found

01 -===- C:\Downloads\Music\Другое\Celtic Woman - Songs From The Heart - 2010\01 - Fields Of Gold.flac
Extracted successfully
Conclusion: This track looks like CDDA with probability 100%
Tempfile successfully deleted.

02 -===- C:\Downloads\Music\Другое\Celtic Woman - Songs From The Heart - 2010\02 - Amazing Grace.flac
Extracted successfully
Conclusion: This track looks like CDDA with probability 100%
Tempfile successfully deleted.

03 -===- C:\Downloads\Music\Другое\Celtic Woman - Songs From The Heart - 2010\03 - Nil Se'n La.flac
Extracted successfully
Conclusion: This track looks like CDDA with probability 100%
Tempfile successfully deleted.

04 -===- C:\Downloads\Music\Другое\Celtic Woman - Songs From The Heart - 2010\04 - My Lagan Love.flac
Extracted successfully
Conclusion: This track looks like CDDA with probability 100%
Tempfile successfully deleted.

05 -===- C:\Downloads\Music\Другое\Celtic Woman - Songs From The Heart - 2010\05 - When You Believe.flac
Extracted successfully
Conclusion: This track looks like CDDA with probability 100%
Tempfile successfully deleted.

06 -===- C:\Downloads\Music\Другое\Celtic Woman - Songs From The Heart - 2010\06 - The New Ground - Isle Of Hope, Isle Of Tears.flac
Extracted successfully
Conclusion: This track looks like CDDA with probability 100%
Tempfile successfully deleted.

07 -===- C:\Downloads\Music\Другое\Celtic Woman - Songs From The Heart - 2010\07 - The Coast Of Galicia.flac
Extracted successfully
Conclusion: This track looks like CDDA with probability 100%
Tempfile successfully deleted.

08 -===- C:\Downloads\Music\Другое\Celtic Woman - Songs From The Heart - 2010\08 - Non C'e Piu.flac
Extracted successfully
Conclusion: This track looks like CDDA with probability 99%
Tempfile successfully deleted.

09 -===- C:\Downloads\Music\Другое\Celtic Woman - Songs From The Heart - 2010\09 - The Moon's A Harsh Mistress.flac
Extracted successfully
Conclusion: This track looks like CDDA with probability 100%
Tempfile successfully deleted.

10 -===- C:\Downloads\Music\Другое\Celtic Woman - Songs From The Heart - 2010\10 - You'll Be In My Heart.flac
Extracted successfully
Conclusion: This track looks like CDDA with probability 100%
Tempfile successfully deleted.

11 -===- C:\Downloads\Music\Другое\Celtic Woman - Songs From The Heart - 2010\11 - Goodnight My Angel.flac
Extracted successfully
Conclusion: This track looks like CDDA with probability 100%
Tempfile successfully deleted.

12 -===- C:\Downloads\Music\Другое\Celtic Woman - Songs From The Heart - 2010\12 - Galway Bay.flac
Extracted successfully
Conclusion: This track looks like CDDA with probability 100%
Tempfile successfully deleted.

13 -===- C:\Downloads\Music\Другое\Celtic Woman - Songs From The Heart - 2010\13 - The Lost Rose Fantasia.flac
Extracted successfully
Conclusion: This track looks like CDDA with probability 100%
Tempfile successfully deleted.

14 -===- C:\Downloads\Music\Другое\Celtic Woman - Songs From The Heart - 2010\14 - O, America!.flac
Extracted successfully
Conclusion: This track looks like CDDA with probability 100%
Tempfile successfully deleted.

Finished at: пятница, 07. 05. 2010. - 20:28.46 (operation time: 0:10.02)

_________________
И все, что делаете, делайте от души, как для Господа, а не для человеков (Кол.3:23)


Последний раз редактировалось: Blessing (2010-10-30 01:37), всего редактировалось 1 раз
[Профиль]  [ЛС] 

Blessing

Стаж: 8 лет 4 месяца

Сообщений: 2572

post 30-Окт-2010 01:32 (спустя 1 минута)

[Цитировать]  [] 

Записать из флака оригин.диск можно через Неро: Выбираем записать образ, находим в папке релиза CUE и пишем, результат - оригинал CD

_________________
И все, что делаете, делайте от души, как для Господа, а не для человеков (Кол.3:23)
[Профиль]  [ЛС] 
Показать сообщения:    
Ответить на тему

Текущее время: 25-Сен 02:59

Часовой пояс: GMT + 4



Вы не можете начинать темы
Вы не можете отвечать на сообщения
Вы не можете редактировать свои сообщения
Вы не можете удалять свои сообщения
Вы не можете голосовать в опросах
Вы не можете прикреплять файлы к сообщениям
Вы не можете скачивать файлы
[  Execution time: 0.214 sec  |  MySQL: 11 queries |  GZIP ON  |  Mem: 597.55 KB / 4.02 MB / 3.48 MB  |  Load: 0.5 0.5 0.5  ]