Loading...
Error

Владимир Вшивкин - Не марнуй життя (2007) FLAC, Lossless [cue/log/trac​k+cue]

Статистика раздачи
Нет
 
     
 
 
Автор Сообщение

Aleksey

Стаж: 9 лет 9 месяцев

Сообщений: 1205

Откуда: отсюда :)

post 21-Мар-2011 19:12

[Цитировать]  [] 

Владимир Вшивкин - Не марнуй життя (2007) FLAC, Lossless

Год выпуска: 2007
Жанр: поп, акустика
Язык: русский, украинский

Описание:
Благодарю Господа моего - Иисуса Христа за то, что Он благословил записать этот альбом и позволил прославить Его.
Благодарю мою жену и детей, что они поддержали мненя и вдохновляли в создании этих песен.
Моему другу Тоду Маршалу за его участие в проекте и его молитвы.
Леониду Гончарову и его продюсерской компании DWM Design за предоставление эксклюзивных инструментов.
Владимиру Сушко за его огромный вклад в создании этого музыкального проэкта.
И моему другу Сергею Кухленко за художественное оформление диска.

Треклист:
01. Кораблик (музыка и стихи В.Вшивкина)
02. Не марнуй життя (музыка и стихи В.Вшивкина)
03. Как-будто все было вчера (музыка и стихи В.Вшивкина)
04. Люби всегда (музыка и стихи В.Вшивкина)
05. Стая журавлей (музыка В.Вшивкина, стихи Н.Диковченко)
06. Різдво (музыка и стихи В.Вшивкина)
07. Ты не печалься (христианские песни)
08. Теплый дождь (музыка В.Сушко, стихи А.Лекашина)
09. Гаснет ли пламя (христианские песни)
10. Только гитары (музыка В.Сушко)

Аудио: FLAC, Lossless
Продолжительность: 00:37:44
Exact Audio Copy V1.0 beta 1 from 15. November 2010

EAC extraction logfile from 20. March 2011, 16:16

Владимир Вшивкин / Не марнуй життя

Used drive : HL-DT-STDVDRAM GH22NS40 Adapter: 0 ID: 2

Read mode : Secure
Utilize accurate stream : Yes
Defeat audio cache : No
Make use of C2 pointers : Yes

Combined read/write offset correction : 0
Overread into Lead-In and Lead-Out : No
Fill up missing offset samples with silence : Yes
Delete leading and trailing silent blocks : No
Null samples used in CRC calculations : No
Used interface : Native Win32 interface for Win NT & 2000
Gap handling : Not detected, thus appended to previous track

Used output format : Пользовательский кодировщик
Selected bitrate : 896 kBit/s
Quality : High
Add ID3 tag : Yes
Command line compressor : C:\Program Files (x86)\Exact Audio Copy\FLAC\FLAC.EXE
Additional command line options : -8 -V -T "ARTIST=%a" -T "TITLE=%t" -T "ALBUM=%g" -T "DATE=%y" -T "TRACKNUMBER=%n" -T "GENRE=%m" -T "COMMENT=%e" %j--picture="%i"%j %s -o %d

TOC of the extracted CD

Track | Start | Length | Start sector | End sector
---------------------------------------------------------
1 | 0:00.00 | 4:31.00 | 0 | 20324
2 | 4:31.00 | 3:21.74 | 20325 | 35473
3 | 7:52.74 | 4:33.37 | 35474 | 55985
4 | 12:26.36 | 3:53.37 | 55986 | 73497
5 | 16:19.73 | 4:24.74 | 73498 | 93371
6 | 20:44.72 | 3:14.37 | 93372 | 107958
7 | 23:59.34 | 3:13.74 | 107959 | 122507
8 | 27:13.33 | 3:39.01 | 122508 | 138933
9 | 30:52.34 | 3:48.00 | 138934 | 156033
10 | 34:40.34 | 3:05.00 | 156034 | 169908

Track 1

Filename C:\Users\Administrator\Music\Владимир Вшивкин - Не марнуй життя (2007) FLAC\01 - Кораблик.wav

Peak level 93.4 %
Extraction speed 18.5 X
Track quality 100.0 %
Test CRC A438E5A6
Copy CRC A438E5A6
Copy OK

Track 2

Filename C:\Users\Administrator\Music\Владимир Вшивкин - Не марнуй життя (2007) FLAC\02 - Не марнуй життя.wav

Peak level 93.4 %
Extraction speed 17.4 X
Track quality 100.0 %
Test CRC 2713588E
Copy CRC 2713588E
Copy OK

Track 3

Filename C:\Users\Administrator\Music\Владимир Вшивкин - Не марнуй життя (2007) FLAC\03 - Как-будто все было вчера.wav

Peak level 89.4 %
Extraction speed 19.0 X
Track quality 99.9 %
Test CRC 1FCE198D
Copy CRC 1FCE198D
Copy OK

Track 4

Filename C:\Users\Administrator\Music\Владимир Вшивкин - Не марнуй життя (2007) FLAC\04 - Люби всегда.wav

Peak level 93.4 %
Extraction speed 20.7 X
Track quality 100.0 %
Test CRC A979DA08
Copy CRC A979DA08
Copy OK

Track 5

Filename C:\Users\Administrator\Music\Владимир Вшивкин - Не марнуй життя (2007) FLAC\05 - Стая журавлей.wav

Peak level 89.4 %
Extraction speed 24.4 X
Track quality 100.0 %
Test CRC 03026653
Copy CRC 03026653
Copy OK

Track 6

Filename C:\Users\Administrator\Music\Владимир Вшивкин - Не марнуй життя (2007) FLAC\06 - Різдво.wav

Peak level 89.4 %
Extraction speed 24.7 X
Track quality 100.0 %
Test CRC 72990690
Copy CRC 72990690
Copy OK

Track 7

Filename C:\Users\Administrator\Music\Владимир Вшивкин - Не марнуй життя (2007) FLAC\07 - Ты не печалься.wav

Peak level 87.2 %
Extraction speed 23.2 X
Track quality 100.0 %
Test CRC 295C15E1
Copy CRC 295C15E1
Copy OK

Track 8

Filename C:\Users\Administrator\Music\Владимир Вшивкин - Не марнуй життя (2007) FLAC\08 - Теплый дождь.wav

Peak level 87.2 %
Extraction speed 27.9 X
Track quality 100.0 %
Test CRC 574680A1
Copy CRC 574680A1
Copy OK

Track 9

Filename C:\Users\Administrator\Music\Владимир Вшивкин - Не марнуй життя (2007) FLAC\09 - Гаснет ли пламя.wav

Peak level 89.4 %
Extraction speed 28.9 X
Track quality 100.0 %
Test CRC 3E47632A
Copy CRC 3E47632A
Copy OK

Track 10

Filename C:\Users\Administrator\Music\Владимир Вшивкин - Не марнуй життя (2007) FLAC\10 - Только гитары.wav

Peak level 87.2 %
Extraction speed 29.7 X
Track quality 100.0 %
Test CRC 7102A1DA
Copy CRC 7102A1DA
Copy OK

No errors occurred

End of status report

==== Log checksum 7DB260DD8D767DDB979B485867FB365230658801B4A6618CE02A5E307C330422 ====

_________________
"И напрасно я стану уверять, что сегодняшнее насилие создаст свободу завтра, — я внедряю только насилие. С жизнью не слукавишь. Не обманешь дерево, оно потянется туда, куда его направят. Прочее — ветер слов. И если мне кажется, что я жертвую вот этим поколением во имя счастья последующих, я просто-напросто жертвую людьми. Не этими и не теми, а всеми разом. Всех людей я обрекаю на злосчастье. Прочее — ветер слов. И если я воюю во имя мира, я укрепляю войну. С помощью войны не установить мира."
Антуан де Сент-Экзюпери. Цитадель
[Профиль]  [ЛС] 

Aleksey

Стаж: 9 лет 9 месяцев

Сообщений: 1205

Откуда: отсюда :)

post 22-Мар-2011 02:15 (спустя 7 часов)

[Цитировать]  [] 


_________________
"И напрасно я стану уверять, что сегодняшнее насилие создаст свободу завтра, — я внедряю только насилие. С жизнью не слукавишь. Не обманешь дерево, оно потянется туда, куда его направят. Прочее — ветер слов. И если мне кажется, что я жертвую вот этим поколением во имя счастья последующих, я просто-напросто жертвую людьми. Не этими и не теми, а всеми разом. Всех людей я обрекаю на злосчастье. Прочее — ветер слов. И если я воюю во имя мира, я укрепляю войну. С помощью войны не установить мира."
Антуан де Сент-Экзюпери. Цитадель
[Профиль]  [ЛС] 
Показать сообщения:    
Ответить на тему

Текущее время: 21-Июн 12:12

Часовой пояс: GMT + 4



Вы не можете начинать темы
Вы не можете отвечать на сообщения
Вы не можете редактировать свои сообщения
Вы не можете удалять свои сообщения
Вы не можете голосовать в опросах
Вы не можете прикреплять файлы к сообщениям
Вы не можете скачивать файлы
[  Execution time: 0.212 sec  |  MySQL: 11 queries |  GZIP ON  |  Mem: 597.55 KB / 4.01 MB / 3.45 MB  |  Load: 0.3 0.4 0.4  ]