Loading...
Error

Диана Судакова - Жемчужины (2008) МР3, 320 kbps

Статистика раздачи
Нет
 
     
 
 
Автор Сообщение

Aleksey

Стаж: 10 лет

Сообщений: 1205

Откуда: отсюда :)

post 05-Мар-2011 22:25

[Цитировать]  [] 

Диана Судакова - Жемчужины (2008)

Год выпуска: 2008
Жанр: Classical, Vocal
Страна: Россия
Язык: Русский

Описание:
В этом альбоме собраны одни из красивейших жемчужин неисчерпаемого моря классической музыки. Произведения Баха, Шуберта, Дворжака, Россини и других композиторов звучат в современной аранжировке.
Тексты, написанные на эти мелодии, воспевают Того, Кто больше всех земных сокровищ. Христос является самой драгоценной Жемчужиной мира!

Треклист:
01. Адажио (Т.Альбинони) - вокал Диана Судакова
02. Время сказать прощай (Ф.Сартори) - вокал Диана Судакова и Николай Любимов
03. Серенада (Ф.Шуберт) - вокал Диана Судакова
04. Тарантелла (Дж.Россини) - вокал Диана Судакова
05. Песня Ангелов (Малис) - вокал Диана Судакова и Кристина Судакова
06. Посмотри на Землю (Ф.Сартори) - вокал Диана Судакова, хор церкви "Новая жизнь" г. Екатеринбург
07. Ария (И.С. Бах) - вокал Диана Судакова
08. Седьмая жемчужина (Традиционная) - вокал Диана Судакова
09. Месяц сияет (А. Дворжак) - вокал Диана Судакова
10. Дом там, где сердце (Г. Хольст) - вокал Диана Судакова, хор церкви "Новая жизнь" г. Екатеринбург
11. Аве Мария (Ф.Шуберт) - вокал Диана Судакова
12. Последняя роза лета (Ирландская народная) - вокал Диана Судакова
13. Ликуй, мой край - (Я. Сибелиус) вокал Диана Судакова, хор церкви "Новая жизнь" г. Екатеринбург
14. Ария (И.С.Бах) - саксофон Игорь Паращук

Формат / Качество: МР3, 44100Hz, Stereo, 320 kbps
Продолжительность: 00:57:54

смотреть онлайн
Exact Audio Copy V1.0 beta 1 from 15. November 2010

EAC extraction logfile from 5. March 2011, 19:35

Диана Судакова / Жемчужины

Used drive : OFQDK 85AB8DQF4PE Adapter: 1 ID: 0

Read mode : Burst

Combined read/write offset correction : 0
Overread into Lead-In and Lead-Out : No
Fill up missing offset samples with silence : Yes
Delete leading and trailing silent blocks : No
Null samples used in CRC calculations : No
Used interface : Native Win32 interface for Win NT & 2000
Gap handling : Not detected, thus appended to previous track

Used output format : MP3: LAME
Selected bitrate : 320 kBit/s
Quality : High
Add ID3 tag : Yes
Command line compressor : C:\Program Files (x86)\Exact Audio Copy\lame\lame.exe
Additional command line options : -b 320 -m s -h -p -o -c -q 0 -k

TOC of the extracted CD

Track | Start | Length | Start sector | End sector
---------------------------------------------------------
1 | 0:00.00 | 3:20.03 | 0 | 15002
2 | 3:20.03 | 3:56.38 | 15003 | 32740
3 | 7:16.41 | 4:37.56 | 32741 | 53571
4 | 11:54.22 | 3:30.66 | 53572 | 69387
5 | 15:25.13 | 3:36.68 | 69388 | 85655
6 | 19:02.06 | 4:07.24 | 85656 | 104204
7 | 23:09.30 | 3:48.04 | 104205 | 121308
8 | 26:57.34 | 4:09.08 | 121309 | 139991
9 | 31:06.42 | 4:53.69 | 139992 | 162035
10 | 36:00.36 | 4:11.15 | 162036 | 180875
11 | 40:11.51 | 4:19.46 | 180876 | 200346
12 | 44:31.22 | 5:15.64 | 200347 | 224035
13 | 49:47.11 | 4:12.65 | 224036 | 243000
14 | 54:00.01 | 3:52.59 | 243001 | 260459

Track 1

Filename C:\Users\Administrator\Music\Диана Судакова - Жемчужины (2008)\01 - Адажио.wav

Timing problem 0:01:08

Peak level 97.7 %
Extraction speed 42.2 X
Test CRC 104B7D26
Copy CRC 104B7D26
Copy finished

Track 2

Filename C:\Users\Administrator\Music\Диана Судакова - Жемчужины (2008)\02 - Время сказать прощай.wav

Peak level 97.7 %
Extraction speed 48.7 X
Test CRC 381E2769
Copy CRC 381E2769
Copy OK

Track 3

Filename C:\Users\Administrator\Music\Диана Судакова - Жемчужины (2008)\03 - Серенада.wav

Peak level 86.8 %
Extraction speed 39.9 X
Test CRC E6673064
Copy CRC E6673064
Copy OK

Track 4

Filename C:\Users\Administrator\Music\Диана Судакова - Жемчужины (2008)\04 - Тарантелла.wav

Peak level 97.7 %
Extraction speed 39.9 X
Test CRC 4A6BDC9D
Copy CRC 4A6BDC9D
Copy OK

Track 5

Filename C:\Users\Administrator\Music\Диана Судакова - Жемчужины (2008)\05 - Песня Ангелов.wav

Peak level 97.7 %
Extraction speed 43.4 X
Test CRC D6115B2C
Copy CRC D6115B2C
Copy OK

Track 6

Filename C:\Users\Administrator\Music\Диана Судакова - Жемчужины (2008)\06 - Посмотри на Землю.wav

Peak level 97.7 %
Extraction speed 45.3 X
Test CRC 21D45AE7
Copy CRC 21D45AE7
Copy OK

Track 7

Filename C:\Users\Administrator\Music\Диана Судакова - Жемчужины (2008)\07 - Ария.wav

Peak level 97.7 %
Extraction speed 45.3 X
Test CRC 80319568
Copy CRC 80319568
Copy OK

Track 8

Filename C:\Users\Administrator\Music\Диана Судакова - Жемчужины (2008)\08 - Седьмая жемчужина.wav

Peak level 97.7 %
Extraction speed 46.1 X
Test CRC 05B694C1
Copy CRC 05B694C1
Copy OK

Track 9

Filename C:\Users\Administrator\Music\Диана Судакова - Жемчужины (2008)\09 - Месяц сияет.wav

Peak level 97.7 %
Extraction speed 46.6 X
Test CRC 9648DC53
Copy CRC 9648DC53
Copy OK

Track 10

Filename C:\Users\Administrator\Music\Диана Судакова - Жемчужины (2008)\10 - Дом там, где сердце.wav

Peak level 97.7 %
Extraction speed 40.5 X
Test CRC FB5679A4
Copy CRC FB5679A4
Copy OK

Track 11

Filename C:\Users\Administrator\Music\Диана Судакова - Жемчужины (2008)\11 - Аве Мария.wav

Peak level 97.7 %
Extraction speed 38.7 X
Test CRC 62D6CDA5
Copy CRC 62D6CDA5
Copy OK

Track 12

Filename C:\Users\Administrator\Music\Диана Судакова - Жемчужины (2008)\12 - Последняя роза лета.wav

Peak level 97.7 %
Extraction speed 39.9 X
Test CRC 13D3AD5C
Copy CRC 13D3AD5C
Copy OK

Track 13

Filename C:\Users\Administrator\Music\Диана Судакова - Жемчужины (2008)\13 - Ликуй, мой край.wav

Peak level 97.7 %
Extraction speed 38.0 X
Test CRC A0E86D87
Copy CRC A0E86D87
Copy OK

Track 14

Filename C:\Users\Administrator\Music\Диана Судакова - Жемчужины (2008)\14 - Ария.wav

Peak level 97.7 %
Extraction speed 39.1 X
Test CRC 9FFE3AD2
Copy CRC 9FFE3AD2
Copy OK

No errors occurred

End of status report

==== Log checksum CCA1024699C7940AEA144B8BC9C861DF857DCBAD62B16B3CD1CB7DE69B664FBC ====
Клип "Посмотри на Землю (Ф.Сартори) - вокал Диана Судакова, хор церкви "Новая жизнь" г. Екатеринбург"


ссылка

_________________
"И напрасно я стану уверять, что сегодняшнее насилие создаст свободу завтра, — я внедряю только насилие. С жизнью не слукавишь. Не обманешь дерево, оно потянется туда, куда его направят. Прочее — ветер слов. И если мне кажется, что я жертвую вот этим поколением во имя счастья последующих, я просто-напросто жертвую людьми. Не этими и не теми, а всеми разом. Всех людей я обрекаю на злосчастье. Прочее — ветер слов. И если я воюю во имя мира, я укрепляю войну. С помощью войны не установить мира."
Антуан де Сент-Экзюпери. Цитадель
[Профиль]  [ЛС] 
Показать сообщения:    
Ответить на тему

Текущее время: 22-Сен 20:40

Часовой пояс: GMT + 4



Вы не можете начинать темы
Вы не можете отвечать на сообщения
Вы не можете редактировать свои сообщения
Вы не можете удалять свои сообщения
Вы не можете голосовать в опросах
Вы не можете прикреплять файлы к сообщениям
Вы не можете скачивать файлы
[  Execution time: 0.144 sec  |  MySQL: 11 queries |  GZIP ON  |  Mem: 597.55 KB / 4.01 MB / 3.45 MB  |  Load: 1.1 0.8 0.6  ]