Loading...
Error

Алексей Ледяев - Терновый куст (2002) DVDRip

Статистика раздачи
Нет
 
     
 
 
Автор Сообщение

SKLYARAN74

Стаж: 7 лет 8 месяцев

Сообщений: 10

Украина

post 15-Апр-2011 12:27

[Цитировать]  [] 

Алексей Ледяев - Терновый куст (2002)

Год выпуска: 2002
Страна: Латвия
Жанр: Мюзикл
Продолжительность: 00:51:47

Режиссер: Алексей Ледяев

В ролях: Алексей Ледяев - автор, композитор, режиссер, исполнитель главной роли
Павел Мурашов - композитор, аранжировщик
Андрей Кочкин - вокал
Вайдас Вишняускас - вокал
Дмитрий Карпов - стунная аранжировка, клавиши
Виктория Угольникова - хореограф
Камерный оркестр

Описание: Здесь происходила историческая встреча, от которой зависела судьба Египта и народа Божьего.
Их было двое. Бог и Моисей. Посылающий и посылаемый.
Пламенем были объяты не только терновый куст, но и их сердца, которые превратились в единый сплав ревности и боли, любви и сострадания.
Их было двое. Они согласились. Сошлись в одном.
Исход реален. Исход неизбежен.
Вряд ли фараон предполагал, что его великая и грозная империя на грани величайшего развала. Император не знал поражений и сводил на нет шансы любого вторжения.
Откуда он мог знать, какой смерч, какой сокрушительный ураган зарождается здесь, у горящего тернового куста. Даже в самых кошмарных снах он не мог предвидеть ту катастрофу, что неумолимо надвигалась на Египет.
General
Complete name :Алексей Ледяев - Терновый куст.avi
Format : AVI
Format/Info : Audio Video Interleave
File size : 607 MiB
Duration : 51mn 46s
Overall bit rate : 1 639 Kbps
Writing application : MEncoder version 4.1.5 building on 20101017
Writing library : [= DigiArty videodll! =]
Video
ID : 0
Format : MPEG-4 Visual
Format profile : Simple@L1
Format settings, BVOP : No
Format settings, QPel : No
Format settings, GMC : No warppoints
Format settings, Matrix : Default (H.263)
Codec ID : DX50
Codec ID/Hint : DivX 5
Duration : 51mn 46s
Bit rate : 1 498 Kbps
Width : 704 pixels
Height : 404 pixels
Display aspect ratio : 16:9
Frame rate : 25.000 fps
Color space : YUV
Chroma subsampling : 4:2:0
Bit depth : 8 bits
Scan type : Progressive
Compression mode : Lossy
Bits/(Pixel*Frame) : 0.211
Stream size : 555 MiB (91%)
Writing library : DigiArty AV Encoder Core

Audio
ID : 1
Format : MPEG Audio
Format version : Version 1
Format profile : Layer 3
Codec ID : 55
Codec ID/Hint : MP3
Duration : 51mn 46s
Bit rate mode : Constant
Bit rate : 128 Kbps
Channel(s) : 2 channels
Sampling rate : 48.0 KHz
Compression mode : Lossy
Stream size : 47.4 MiB (8%)
Alignment : Aligned on interleaves
Interleave, duration : 24 ms (0.60 video frame)
Interleave, preload duration : 504 ms
Качество: DVDRip
Формат: AVI
Видео кодек: DivX
Аудио кодек: MP3
Видео: MPEG-4 Visual;PAL 704x404;25.000 fps;1 498 Kbps
Аудио: MPEG Audio;MP3;48.0 KHz;2 channels;128 Kbps

DVD5 Здесь


Последний раз редактировалось: SKLYARAN74 (2011-04-15 15:27), всего редактировалось 1 раз
[Профиль]  [ЛС] 

Pashakorg

Стаж: 9 лет

Сообщений: 505

Украина

post 15-Апр-2011 14:39 (спустя 2 часа 12 минут)

[Цитировать]  [] 

размер скриншотов не соответствует указанному в тех данных. Указан размер картинки 704x404, а скриншоты 640x376. Размеры должны совпадать, посмотрите в чем у вас ошибка. Возможно при загрузке картинок на сайт было отмечено ограничение размера картинки до 640. Скрины должны быть реальных размеров.

_________________
"блаженнее давать, нежели принимать" - Деян.20:35
[Профиль]  [ЛС] 

SKLYARAN74

Стаж: 7 лет 8 месяцев

Сообщений: 10

Украина

post 15-Апр-2011 15:28 (спустя 49 минут)

[Цитировать]  [] 

Скрины поменял...
[Профиль]  [ЛС] 

post 15-Апр-2011 16:36 (спустя 1 час 8 минут)

[] 

Топик был перенесен из форума Тестовый форум (новые релизы размещать здесь!!!!) в форум Концерты/Спектакли

Pashakorg
 
Показать сообщения:    
Ответить на тему

Текущее время: 15-Дек 18:54

Часовой пояс: GMT + 4



Вы не можете начинать темы
Вы не можете отвечать на сообщения
Вы не можете редактировать свои сообщения
Вы не можете удалять свои сообщения
Вы не можете голосовать в опросах
Вы не можете прикреплять файлы к сообщениям
Вы не можете скачивать файлы
[  Execution time: 2.223 sec  |  MySQL: 16 queries |  GZIP ON  |  Mem: 597.53 KB / 3.99 MB / 3.51 MB  |  Load: 0.9 0.7 0.7  ]