Loading...
Error

Новое Поколение - Алексей Ледяев - Силуэты (2004) DVDRip

Статистика раздачи
Нет
 
     
 
 
Автор Сообщение

SKLYARAN74

Стаж: 7 лет 2 месяца

Сообщений: 10

Украина

post 10-Апр-2011 16:21

[Цитировать]  [] 

Новое Поколение - Алексей Ледяев - Силуэты (2004)

Год выпуска: 2004
Жанр: мюзикл

Режиссер: Алексей Ледяев

В ролях: Алексей Ледяев - автор, композитор, режиссер, исполнитель главной роли
Ольга Ледяева - ведущая
Павел Мурашов - композитор, аранжировщик, клавиши, солист
Мария Ледяева - солист
Андрей Кочкин - солист
Овидиус Вишняускас - солист
Оскар Спрогис - бас гитара
Вадим Базалий - соло/акустическая гитара
Дмитрий Карпов - клавиши
Денис Пашкевич - саксофон, флейта
Нормунд Пиесис - труба
Антон Гелла - ударные
Александр Мерзликин - перкуссии
Анна Жукова - бэк вокал
Есфирь Перевалова - бэк вокал
Эдис Улпе - бэк вокал

Описание: 'Силуэты' – это тени людей, ушедших из Эдема. Есть лишь шанс вернуться назад и обрести утраченное счастье? Ответить можно по-разному. 'Силуэты' – это своеобразный ответ Алексея на этот вопрос. И, как всегда, он оптимист.

В отличие от предыдущих проектов Алексея Ледяева, СИЛУЭТЫ формировались в ходе нескольких концертов, показанных в разных странах. Главная премьера, уже окончательного проекта, состоялась в Риге, Латвия 5 июня 2004.
История зарождения СИЛУЭТОВ началась в начале этого года в США.
Бостон, Массачусетс, США – конец января 2004 года. Большинство песен из этого концерта вошли в проект СИЛУЭТЫ.
Каунас, Литва - апрель 2004. Аншлаг.
General
Complete name : G:\Мюзиклы\Новое поколение -Силуеты.avi
Format : AVI
Format/Info : Audio Video Interleave
File size : 814 MiB
Duration : 1h 9mn
Overall bit rate : 1 641 Kbps
Writing application : MEncoder version 4.1.5 building on 20101017
Writing library : [= DigiArty videodll! =]

Video
ID : 0
Format : MPEG-4 Visual
Format profile : Simple@L1
Format settings, BVOP : No
Format settings, QPel : No
Format settings, GMC : No warppoints
Format settings, Matrix : Default (H.263)
Codec ID : DX50
Codec ID/Hint : DivX 5
Duration : 1h 9mn
Bit rate : 1 500 Kbps
Width : 700 pixels
Height : 348 pixels
Display aspect ratio : 2.004
Frame rate : 25.000 fps
Color space : YUV
Chroma subsampling : 4:2:0
Bit depth : 8 bits
Scan type : Progressive
Compression mode : Lossy
Bits/(Pixel*Frame) : 0.246
Stream size : 744 MiB (91%)
Writing library : DigiArty AV Encoder Core

Audio
ID : 1
Format : MPEG Audio
Format version : Version 1
Format profile : Layer 3
Codec ID : 55
Codec ID/Hint : MP3
Duration : 1h 9mn
Bit rate mode : Constant
Bit rate : 128 Kbps
Channel(s) : 2 channels
Sampling rate : 48.0 KHz
Compression mode : Lossy
Stream size : 63.5 MiB (8%)
Alignment : Aligned on interleaves
Interleave, duration : 24 ms (0.60 video frame)
Interleave, preload duration : 504 ms
DVD5 Здесь

Качество: DVDRip
Формат: AVI
Видео кодек: DivX
Аудио кодек: MP3
Видео: MPEG-4 Visual;PAL 700x348;25.000 fps;1 500 Kbps
Аудио: MP3 Layer 3;48.0 KHz;2 channels;128 Kbps


Последний раз редактировалось: SKLYARAN74 (2011-04-10 20:09), всего редактировалось 1 раз
[Профиль]  [ЛС] 

Blessing

Стаж: 9 лет 1 месяц

Сообщений: 2574

post 10-Апр-2011 17:13 (спустя 51 минута)

[Цитировать]  [] 

Необходимо переделать торрент-файл (Обязательно только латиница и никаких пробелов).

Пример: Siluety_DVDRip_Blessing.torrent

_________________
И все, что делаете, делайте от души, как для Господа, а не для человеков (Кол.3:23)
[Профиль]  [ЛС] 

post 11-Апр-2011 01:00 (спустя 7 часов)

[] 

Топик был перенесен из форума Тестовый форум (новые релизы размещать здесь!!!!) в форум Концерты/Спектакли

Blessing
 

Aleksey

Стаж: 9 лет 9 месяцев

Сообщений: 1205

Откуда: отсюда :)

post 11-Апр-2011 09:31 (спустя 16 часов)

[Цитировать]  [] 

поправил шапку.

_________________
"И напрасно я стану уверять, что сегодняшнее насилие создаст свободу завтра, — я внедряю только насилие. С жизнью не слукавишь. Не обманешь дерево, оно потянется туда, куда его направят. Прочее — ветер слов. И если мне кажется, что я жертвую вот этим поколением во имя счастья последующих, я просто-напросто жертвую людьми. Не этими и не теми, а всеми разом. Всех людей я обрекаю на злосчастье. Прочее — ветер слов. И если я воюю во имя мира, я укрепляю войну. С помощью войны не установить мира."
Антуан де Сент-Экзюпери. Цитадель
[Профиль]  [ЛС] 

SKLYARAN74

Стаж: 7 лет 2 месяца

Сообщений: 10

Украина

post 11-Апр-2011 20:51 (спустя 11 часов)

[Цитировать]  [] 

Aleksey, Blessing и всем,всем,всем спасибо!!!
[Профиль]  [ЛС] 
Показать сообщения:    
Ответить на тему

Текущее время: 20-Июн 17:32

Часовой пояс: GMT + 4



Вы не можете начинать темы
Вы не можете отвечать на сообщения
Вы не можете редактировать свои сообщения
Вы не можете удалять свои сообщения
Вы не можете голосовать в опросах
Вы не можете прикреплять файлы к сообщениям
Вы не можете скачивать файлы
[  Execution time: 0.199 sec  |  MySQL: 11 queries |  GZIP ON  |  Mem: 597.55 KB / 4.05 MB / 3.5 MB  |  Load: 0.6 0.5 0.5  ]