Loading...
Error

WOW Hits (2011) DVD5

Статистика раздачи
Нет
 
     
 
 
Автор Сообщение

Blessing

Стаж: 9 лет 3 месяца

Сообщений: 2574

post 28-Фев-2011 04:05

[Цитировать]  [] 

Wow Hits 2011

Название: WOW Hits
Год выхода: 2010
Исполнители: VA
DVD Release Date: October 5, 2010

Язык: English
Продолжительность: 01:25:54

WOW Hits 2011: The Videos is the must-have collection of the year's top Christian music video hits - uniting the most creative and compelling concept videos as well as powerful live concert footage. Representing the best in rock and pop, this video compilation has something for everyone!

Треклист:
01. Tonight - TobyMac
02. Until The Whole World Hears - Casting Crown
03. Beautiful Beautiful - Francesca Battistelli
04. Born Again - Newsboys
05. Call My Name - Third Day®
06. In Better Hands - Natalie Grant
07. What Faith Can Do - Kutless
08. Lay `Em Down - NEEDTOBREATHE
09. Mess Of Me - Switchfoot
10. The Lost Get Found - Britt Nicole
11. Ordinary World - RED
12. How He Loves - David Crowder*Band
13. Forgiven - Sanctus Real
14. Better Than A Hallelujah - Amy Grant
15. Let The Waters Rise - MIKESCHAIR
16. Forever Reign - Hillsong LIVE
17. Don't You Know You're Beautiful - Seabird
18. For Those Who Wait - Fireflight
19. Live It Up - Group1Crew
20. Breaking The Noise - Satellites & Sirens
21. Rescue - Remedy Drive
22. Whatever It Takes - Pillar

Формат: MPEG-PS
Качество: DVD5
Видео: MPEG2 Video 720x480 (4:3) 29.97fps 6200Kbps
Аудио1: Dolby AC3 48000Hz stereo 192Kbps
Аудио2: Dolby AC3 48000Hz 6ch 448Kbps
Video
ID : 224 (0xE0)
Format : MPEG Video
Format version : Version 2
Format profile : Main@Main
Format settings, BVOP : Yes
Format settings, Matrix : Default
Format settings, GOP : M=3, N=15
Duration : 20mn 32s
Bit rate mode : Constant
Bit rate : 6 200 Kbps
Width : 720 pixels
Height : 480 pixels
Display aspect ratio : 4:3
Frame rate : 29.970 fps
Standard : NTSC
Color space : YUV
Chroma subsampling : 4:2:0
Bit depth : 8 bits
Scan type : Interlaced
Scan order : Top Field First
Bits/(Pixel*Frame) : 0.599
Stream size : 909 MiB (89%)

Audio #1
ID : 128 (0x80)
Format : AC-3
Format/Info : Audio Coding 3
Mode extension : CM (complete main)
Duration : 20mn 32s
Bit rate mode : Constant
Bit rate : 192 Kbps
Channel(s) : 2 channels
Channel positions : Front: L R
Sampling rate : 48.0 KHz
Bit depth : 16 bits
Video delay : -495ms
Stream size : 28.2 MiB (3%)

Audio #2
ID : 129 (0x81)
Format : AC-3
Format/Info : Audio Coding 3
Mode extension : CM (complete main)
Duration : 20mn 32s
Bit rate mode : Constant
Bit rate : 448 Kbps
Channel(s) : 6 channels
Channel positions : Front: L C R, Side: L R, LFE
Sampling rate : 48.0 KHz
Bit depth : 16 bits
Video delay : -527ms
Stream size : 65.8 MiB (6%)

_________________
И все, что делаете, делайте от души, как для Господа, а не для человеков (Кол.3:23)


Последний раз редактировалось: Blessing (2011-03-01 10:44), всего редактировалось 1 раз
[Профиль]  [ЛС] 

Blessing

Стаж: 9 лет 3 месяца

Сообщений: 2574

post 01-Мар-2011 02:52 (спустя 22 часа)

[Цитировать]  [] 

Можно смело налетать и качать!

_________________
И все, что делаете, делайте от души, как для Господа, а не для человеков (Кол.3:23)
[Профиль]  [ЛС] 

Aleksey

Стаж: 9 лет

Сообщений: 1205

Откуда: отсюда :)

post 01-Мар-2011 12:42 (спустя 9 часов)

[Цитировать]  [] 

супер ad

_________________
"И напрасно я стану уверять, что сегодняшнее насилие создаст свободу завтра, — я внедряю только насилие. С жизнью не слукавишь. Не обманешь дерево, оно потянется туда, куда его направят. Прочее — ветер слов. И если мне кажется, что я жертвую вот этим поколением во имя счастья последующих, я просто-напросто жертвую людьми. Не этими и не теми, а всеми разом. Всех людей я обрекаю на злосчастье. Прочее — ветер слов. И если я воюю во имя мира, я укрепляю войну. С помощью войны не установить мира."
Антуан де Сент-Экзюпери. Цитадель
[Профиль]  [ЛС] 
Показать сообщения:    
Ответить на тему

Текущее время: 19-Авг 12:04

Часовой пояс: GMT + 4



Вы не можете начинать темы
Вы не можете отвечать на сообщения
Вы не можете редактировать свои сообщения
Вы не можете удалять свои сообщения
Вы не можете голосовать в опросах
Вы не можете прикреплять файлы к сообщениям
Вы не можете скачивать файлы
[  Execution time: 0.143 sec  |  MySQL: 11 queries |  GZIP ON  |  Mem: 597.55 KB / 4.01 MB / 3.46 MB  |  Load: 0.4 0.4 0.4  ]