Loading...
Error

Алексей Ледяев - Game is Over - Пир Валтасара (2010) DVD9

Статистика раздачи
Нет
 
     
 
 
Автор Сообщение

andreyvira

Стаж: 7 лет 6 месяцев

Сообщений: 45

Украина

post 23-Фев-2011 20:03

[Цитировать]  [] 

Алексей Ледяев - Game is Over - Пир Валтасара (2010) DVD9

Год выпуска: 2010
Страна: Латвия
Жанр: Мюзикл Рок-Опера
Режиссер: Олег Шапошников
В ролях: Вайдас Вишняускас, Владас Ковалевас, Чесловас Габалис, Овидиюс Вишняускас, Лев Бирмаиис

Продолжительность: 01:00:01 (всего!)
Перевод: Не требуется

Описание:
Пир царя Валтасара оборвался на половине. Панический страх опустошал почётные места в VIР-ложах. Дамы в истерике метались по залу. Кавалеры беспомощно пытались контролировать ситуацию. Нетронутые блюда, недопитое вино, недосказанные тосты, недопетые песни... У выходных дверей столпотворение. Люди вырывались, бежали - убегали как можно дальше от этого страшного места. В ту же самую ночь Валтасар, царь Халдейский, был убит. Game is over.
«ПИР ВАЛТАСАРА» - это финальная сцена первого акта рок-оперы «Game is over».
«ПИР ВАЛТАСАРА» - это серьёзное послание к тем, кто легкомысленно забывает, что над любой земной властью надзирает власть небесная.
«Престолы ли, господства ли, начальства ли, власти ли, - всё Им и для Него создано» (Кол. 1:16)
Всякая власть от Бога, и должна знать Бога. Кому много дано, с того много и спросится. Бог ставит царей, Он же их и убирает.
Автор идеи и текста, композитор, продюсер - пастор Алексей Ледяев

Формат: MPEG-PS
Качество: DVD9
Video: MPEG2 Video 720x576 (16:9) 25.00fps 8500Kbps
Audio RUS: Dolby AC3 48000Hz stereo 192Kbps

ВНИМАНИЕ!!! торрент-файл обновлен! 27-02-2011 / Aleksey
Общее
Полное имя :Belshazzar's Feast\VIDEO_TS\VIDEO_TS.BUP
Формат : DVD Video
Профиль формата : Menu
Размер файла : 12,0 Кбайт

Видео
Идентификатор : 224 (0xE0)
Формат : MPEG Video
Версия формата : Version 2
Вид битрейта : Переменный
Ширина : 720 пикс.
Высота : 576 пикс.
Соотношение сторон : 16:9
Частота кадров : 25,000 кадр/сек
Стандарт вещания : PAL
Метод сжатия : С потерями

Аудио
Формат : AC-3
Формат/Информация : Audio Coding 3
Канал(ы) : 2 канала(ов)
Частота : 48,0 КГц
Метод сжатия : С потерями

Текст
Формат : RLE
Формат/Информация : Run-length encoding
Битовая глубина : 2 бит

Общее
Полное имя : J:\TORRENT\Belshazzar's Feast\VIDEO_TS\VIDEO_TS.IFO
Формат : DVD Video
Профиль формата : Menu
Размер файла : 12,0 Кбайт

Видео
Идентификатор : 224 (0xE0)
Формат : MPEG Video
Версия формата : Version 2
Вид битрейта : Переменный
Ширина : 720 пикс.
Высота : 576 пикс.
Соотношение сторон : 16:9
Частота кадров : 25,000 кадр/сек
Стандарт вещания : PAL
Метод сжатия : С потерями

Аудио
Формат : AC-3
Формат/Информация : Audio Coding 3
Канал(ы) : 2 канала(ов)
Частота : 48,0 КГц
Метод сжатия : С потерями

Текст
Формат : RLE
Формат/Информация : Run-length encoding
Битовая глубина : 2 бит

Общее
Полное имя : J:\TORRENT\Belshazzar's Feast\VIDEO_TS\VIDEO_TS.VOB
Формат : MPEG-PS
Размер файла : 4,99 Мбайт
Продолжительность : 7 с. 120 мс.
Общий поток : 5882 Кбит/сек

Видео
Идентификатор : 224 (0xE0)
Формат : MPEG Video
Версия формата : Version 2
Профиль формата : Main@Main
Параметр BVOP формата : Да
Параметр матрицы формата : По умолчанию
Параметры GOP формата : M=3, N=12
Продолжительность : 7 с. 120 мс.
Вид битрейта : Переменный
Битрейт : 5573 Кбит/сек
Номинальный битрейт : 8500 Кбит/сек
Ширина : 720 пикс.
Высота : 576 пикс.
Соотношение сторон : 16:9
Частота кадров : 25,000 кадр/сек
Стандарт вещания : PAL
Цветовое пространство : YUV
Подвыборка цветности : 4:2:0
Битовая глубина : 8 бит
Тип развёртки : Чересстрочная
Порядок развёртки : Верхнее поле первое
Метод сжатия : С потерями
Бит/(Пиксели*Кадры) : 0.537
Размер потока : 4,73 Мбайт (95%)

Аудио
Идентификатор : 128 (0x80)
Формат : AC-3
Формат/Информация : Audio Coding 3
Расширение режима : CM (complete main)
Продолжительность : 7 с. 40 мс.
Вид битрейта : Постоянный
Битрейт : 192 Кбит/сек
Канал(ы) : 2 канала(ов)
Расположение каналов : Front: L R
Частота : 48,0 КГц
Битовая глубина : 16 бит
Метод сжатия : С потерями
Размер потока : 165 Кбайт (3%)

Меню

Общее
Полное имя : J:\TORRENT\Belshazzar's Feast\VIDEO_TS\VTS_01_0.BUP
Формат : DVD Video
Профиль формата : Program
Размер файла : 64,0 Кбайт
Продолжительность : 19 м.
Общий поток : 455 бит/сек

Видео
Идентификатор : 224 (0xE0)
Формат : MPEG Video
Версия формата : Version 2
Продолжительность : 19 м.
Вид битрейта : Переменный
Ширина : 720 пикс.
Высота : 576 пикс.
Соотношение сторон : 16:9
Частота кадров : 25,000 кадр/сек
Стандарт вещания : PAL
Метод сжатия : С потерями

Аудио #1
Идентификатор : 128 (0x80)
Формат : AC-3
Формат/Информация : Audio Coding 3
Продолжительность : 19 м.
Канал(ы) : 2 канала(ов)
Частота : 48,0 КГц
Метод сжатия : С потерями
Язык : Russian

Аудио #2
Идентификатор : 129 (0x81)
Формат : AC-3
Формат/Информация : Audio Coding 3
Продолжительность : 19 м.
Канал(ы) : 6 канала(ов)
Частота : 48,0 КГц
Метод сжатия : С потерями
Язык : Russian

Текст #1
Идентификатор : 32 (0x20)
Формат : RLE
Формат/Информация : Run-length encoding
Битовая глубина : 2 бит
Язык : Russian
Язык, дополнительно : Normal

Текст #2
Идентификатор : 32 (0x20)
Формат : RLE
Формат/Информация : Run-length encoding
Битовая глубина : 2 бит
Язык : English
Язык, дополнительно : Normal

Меню #1
Продолжительность : 1 м. 41 с.
00:00:00.000 : Chapter 1
List (Audio) : 0 / 1
List (Subtitles 4/3) : 0 / 0
List (Subtitles Wide) : 0 / 0
List (Subtitles Letterbox) : 0 / 0
List (Subtitles Pan&Scan) : 0 / 0

Меню #2
Продолжительность : 19 м.
00:00:00.000 : Chapter 1
00:00:25.000 : Chapter 2
00:00:26.000 : Chapter 3
00:00:27.640 : Chapter 4
00:00:34.640 : Chapter 5
00:00:46.640 : Chapter 6
00:01:04.640 : Chapter 7
00:01:08.280 : Chapter 8
00:01:21.280 : Chapter 9
00:01:21.880 : Chapter 10
00:01:26.880 : Chapter 11
00:01:55.880 : Chapter 12
00:02:07.880 : Chapter 13
List (Audio) : 0 / 0
List (Subtitles 4/3) : 0 / 0
List (Subtitles Wide) : 0 / 1
List (Subtitles Letterbox) : 0 / 1
List (Subtitles Pan&Scan) : 0 / 0

Общее
Полное имя : J:\TORRENT\Belshazzar's Feast\VIDEO_TS\VTS_01_0.IFO
Формат : DVD Video
Профиль формата : Program
Размер файла : 64,0 Кбайт
Продолжительность : 19 м.
Общий поток : 455 бит/сек

Видео
Идентификатор : 224 (0xE0)
Формат : MPEG Video
Версия формата : Version 2
Продолжительность : 19 м.
Вид битрейта : Переменный
Ширина : 720 пикс.
Высота : 576 пикс.
Соотношение сторон : 16:9
Частота кадров : 25,000 кадр/сек
Стандарт вещания : PAL
Метод сжатия : С потерями

Аудио #1
Идентификатор : 128 (0x80)
Формат : AC-3
Формат/Информация : Audio Coding 3
Продолжительность : 19 м.
Канал(ы) : 2 канала(ов)
Частота : 48,0 КГц
Метод сжатия : С потерями
Язык : Russian

Аудио #2
Идентификатор : 129 (0x81)
Формат : AC-3
Формат/Информация : Audio Coding 3
Продолжительность : 19 м.
Канал(ы) : 6 канала(ов)
Частота : 48,0 КГц
Метод сжатия : С потерями
Язык : Russian

Текст #1
Идентификатор : 32 (0x20)
Формат : RLE
Формат/Информация : Run-length encoding
Битовая глубина : 2 бит
Язык : Russian
Язык, дополнительно : Normal

Текст #2
Идентификатор : 32 (0x20)
Формат : RLE
Формат/Информация : Run-length encoding
Битовая глубина : 2 бит
Язык : English
Язык, дополнительно : Normal

Меню #1
Продолжительность : 1 м. 41 с.
00:00:00.000 : Chapter 1
List (Audio) : 0 / 1
List (Subtitles 4/3) : 0 / 0
List (Subtitles Wide) : 0 / 0
List (Subtitles Letterbox) : 0 / 0
List (Subtitles Pan&Scan) : 0 / 0

Меню #2
Продолжительность : 19 м.
00:00:00.000 : Chapter 1
00:00:25.000 : Chapter 2
00:00:26.000 : Chapter 3
00:00:27.640 : Chapter 4
00:00:34.640 : Chapter 5
00:00:46.640 : Chapter 6
00:01:04.640 : Chapter 7
00:01:08.280 : Chapter 8
00:01:21.280 : Chapter 9
00:01:21.880 : Chapter 10
00:01:26.880 : Chapter 11
00:01:55.880 : Chapter 12
00:02:07.880 : Chapter 13
List (Audio) : 0 / 0
List (Subtitles 4/3) : 0 / 0
List (Subtitles Wide) : 0 / 1
List (Subtitles Letterbox) : 0 / 1
List (Subtitles Pan&Scan) : 0 / 0

Общее
Полное имя : J:\TORRENT\Belshazzar's Feast\VIDEO_TS\VTS_01_0.VOB
Формат : MPEG-PS
Размер файла : 917 Мбайт
Продолжительность : 8 м. 57 с.
Общий поток : 14,3 Мбит/сек

Видео
Идентификатор : 224 (0xE0)
Формат : MPEG Video
Версия формата : Version 2
Профиль формата : Main@Main
Параметр BVOP формата : Да
Параметр матрицы формата : По умолчанию
Параметры GOP формата : M=3, N=12
Продолжительность : 8 м. 57 с.
Вид битрейта : Переменный
Битрейт : 13,9 Мбит/сек
Номинальный битрейт : 8500 Кбит/сек
Ширина : 720 пикс.
Высота : 576 пикс.
Соотношение сторон : 16:9
Частота кадров : 25,000 кадр/сек
Стандарт вещания : PAL
Цветовое пространство : YUV
Подвыборка цветности : 4:2:0
Битовая глубина : 8 бит
Тип развёртки : Чересстрочная
Порядок развёртки : Верхнее поле первое
Метод сжатия : С потерями
Бит/(Пиксели*Кадры) : 1.336
Размер потока : 887 Мбайт (97%)

Аудио
Идентификатор : 128 (0x80)
Формат : AC-3
Формат/Информация : Audio Coding 3
Расширение режима : CM (complete main)
Продолжительность : 8 м. 56 с.
Вид битрейта : Постоянный
Битрейт : 192 Кбит/сек
Канал(ы) : 2 канала(ов)
Расположение каналов : Front: L R
Частота : 48,0 КГц
Битовая глубина : 16 бит
Метод сжатия : С потерями
Размер потока : 12,3 Мбайт (1%)

Текст #1
Идентификатор : 32 (0x20)
Формат : RLE
Формат/Информация : Run-length encoding

Текст #2
Идентификатор : 33 (0x21)
Формат : RLE
Формат/Информация : Run-length encoding

Меню

Общее
Полное имя : J:\TORRENT\Belshazzar's Feast\VIDEO_TS\VTS_01_1.VOB
Формат : MPEG-PS
Размер файла : 1024 Мбайт
Продолжительность : 15 м.
Общий поток : 9337 Кбит/сек

Видео
Идентификатор : 224 (0xE0)
Формат : MPEG Video
Версия формата : Version 2
Профиль формата : Main@Main
Параметр BVOP формата : Да
Параметр матрицы формата : По умолчанию
Параметры GOP формата : M=3, N=12
Продолжительность : 15 м.
Вид битрейта : Переменный
Битрейт : 8959 Кбит/сек
Номинальный битрейт : 8500 Кбит/сек
Ширина : 720 пикс.
Высота : 576 пикс.
Соотношение сторон : 16:9
Частота кадров : 25,000 кадр/сек
Стандарт вещания : PAL
Цветовое пространство : YUV
Подвыборка цветности : 4:2:0
Битовая глубина : 8 бит
Тип развёртки : Чересстрочная
Порядок развёртки : Верхнее поле первое
Метод сжатия : С потерями
Бит/(Пиксели*Кадры) : 0.864
Размер потока : 983 Мбайт (96%)

Аудио
Идентификатор : 128 (0x80)
Формат : AC-3
Формат/Информация : Audio Coding 3
Расширение режима : CM (complete main)
Продолжительность : 15 м.
Вид битрейта : Постоянный
Битрейт : 192 Кбит/сек
Канал(ы) : 2 канала(ов)
Расположение каналов : Front: L R
Частота : 48,0 КГц
Битовая глубина : 16 бит
Метод сжатия : С потерями
Размер потока : 21,1 Мбайт (2%)

Меню

Общее
Полное имя : J:\TORRENT\Belshazzar's Feast\VIDEO_TS\VTS_01_2.VOB
Формат : MPEG-PS
Размер файла : 1024 Мбайт
Общий поток : 0

Видео
Идентификатор : 224 (0xE0)
Формат : MPEG Video
Версия формата : Version 2
Профиль формата : Main@Main
Параметр BVOP формата : Да
Параметр матрицы формата : По умолчанию
Вид битрейта : Переменный
Номинальный битрейт : 8500 Кбит/сек
Ширина : 720 пикс.
Высота : 576 пикс.
Соотношение сторон : 16:9
Частота кадров : 25,000 кадр/сек
Стандарт вещания : PAL
Цветовое пространство : YUV
Подвыборка цветности : 4:2:0
Битовая глубина : 8 бит
Тип развёртки : Чересстрочная
Порядок развёртки : Верхнее поле первое
Метод сжатия : С потерями
Бит/(Пиксели*Кадры) : 0.820

Аудио #1
Идентификатор : 128 (0x80)
Формат : AC-3
Формат/Информация : Audio Coding 3
Расширение режима : CM (complete main)
Продолжительность : -2 м. 11 с.
Вид битрейта : Постоянный
Битрейт : 192 Кбит/сек
Канал(ы) : 2 канала(ов)
Расположение каналов : Front: L R
Частота : 48,0 КГц
Битовая глубина : 16 бит
Метод сжатия : С потерями
Задержка видео : -232 мс.
Размер потока : 2,05 ?iB

Аудио #2
Идентификатор : 129 (0x81)
Формат : AC-3
Формат/Информация : Audio Coding 3
Расширение режима : CM (complete main)
Продолжительность : 2 с. 208 мс.
Вид битрейта : Постоянный
Битрейт : 384 Кбит/сек
Канал(ы) : 6 канала(ов)
Расположение каналов : Front: L C R, Side: L R, LFE
Частота : 48,0 КГц
Битовая глубина : 16 бит
Метод сжатия : С потерями
Размер потока : 104 Кбайт (0%)

Текст #1
Идентификатор : 32 (0x20)
Формат : RLE
Формат/Информация : Run-length encoding
Задержка видео : 1 с. 80 мс.

Текст #2
Идентификатор : 33 (0x21)
Формат : RLE
Формат/Информация : Run-length encoding
Задержка видео : 1 с. 80 мс.

Меню

Общее
Полное имя : J:\TORRENT\Belshazzar's Feast\VIDEO_TS\VTS_01_3.VOB
Формат : MPEG-PS
Размер файла : 1024 Мбайт
Продолжительность : 16 м.
Общий поток : 8440 Кбит/сек

Видео
Идентификатор : 224 (0xE0)
Формат : MPEG Video
Версия формата : Version 2
Профиль формата : Main@Main
Параметр BVOP формата : Да
Параметр матрицы формата : По умолчанию
Продолжительность : 16 м.
Вид битрейта : Переменный
Битрейт : 7696 Кбит/сек
Номинальный битрейт : 8500 Кбит/сек
Ширина : 720 пикс.
Высота : 576 пикс.
Соотношение сторон : 16:9
Частота кадров : 25,000 кадр/сек
Стандарт вещания : PAL
Цветовое пространство : YUV
Подвыборка цветности : 4:2:0
Битовая глубина : 8 бит
Тип развёртки : Чересстрочная
Порядок развёртки : Верхнее поле первое
Метод сжатия : С потерями
Бит/(Пиксели*Кадры) : 0.742
Размер потока : 934 Мбайт (91%)

Аудио #1
Идентификатор : 128 (0x80)
Формат : AC-3
Формат/Информация : Audio Coding 3
Расширение режима : CM (complete main)
Продолжительность : 16 м.
Вид битрейта : Постоянный
Битрейт : 192 Кбит/сек
Канал(ы) : 2 канала(ов)
Расположение каналов : Front: L R
Частота : 48,0 КГц
Битовая глубина : 16 бит
Метод сжатия : С потерями
Задержка видео : -192 мс.
Размер потока : 23,3 Мбайт (2%)

Аудио #2
Идентификатор : 129 (0x81)
Формат : AC-3
Формат/Информация : Audio Coding 3
Расширение режима : CM (complete main)
Продолжительность : 16 м.
Вид битрейта : Постоянный
Битрейт : 384 Кбит/сек
Канал(ы) : 6 канала(ов)
Расположение каналов : Front: L C R, Side: L R, LFE
Частота : 48,0 КГц
Битовая глубина : 16 бит
Метод сжатия : С потерями
Задержка видео : -224 мс.
Размер потока : 46,6 Мбайт (5%)

Текст #1
Идентификатор : 32 (0x20)
Формат : RLE
Формат/Информация : Run-length encoding
Задержка видео : 1 с. 720 мс.

Текст #2
Идентификатор : 33 (0x21)
Формат : RLE
Формат/Информация : Run-length encoding
Задержка видео : 1 с. 720 мс.

Меню

Общее
Полное имя : J:\TORRENT\Belshazzar's Feast\VIDEO_TS\VTS_01_4.VOB
Формат : MPEG-PS
Размер файла : 606 Мбайт
Продолжительность : 9 м. 55 с.
Общий поток : 8545 Кбит/сек

Видео
Идентификатор : 224 (0xE0)
Формат : MPEG Video
Версия формата : Version 2
Профиль формата : Main@Main
Параметр BVOP формата : Да
Параметр матрицы формата : По умолчанию
Параметры GOP формата : M=3, N=12
Продолжительность : 9 м. 55 с.
Вид битрейта : Переменный
Битрейт : 7799 Кбит/сек
Номинальный битрейт : 8500 Кбит/сек
Ширина : 720 пикс.
Высота : 576 пикс.
Соотношение сторон : 16:9
Частота кадров : 25,000 кадр/сек
Стандарт вещания : PAL
Цветовое пространство : YUV
Подвыборка цветности : 4:2:0
Битовая глубина : 8 бит
Тип развёртки : Чересстрочная
Порядок развёртки : Верхнее поле первое
Метод сжатия : С потерями
Бит/(Пиксели*Кадры) : 0.752
Размер потока : 553 Мбайт (91%)

Аудио #1
Идентификатор : 128 (0x80)
Формат : AC-3
Формат/Информация : Audio Coding 3
Расширение режима : CM (complete main)
Продолжительность : 9 м. 55 с.
Вид битрейта : Постоянный
Битрейт : 192 Кбит/сек
Канал(ы) : 2 канала(ов)
Расположение каналов : Front: L R
Частота : 48,0 КГц
Битовая глубина : 16 бит
Метод сжатия : С потерями
Задержка видео : -200 мс.
Размер потока : 13,6 Мбайт (2%)

Аудио #2
Идентификатор : 129 (0x81)
Формат : AC-3
Формат/Информация : Audio Coding 3
Расширение режима : CM (complete main)
Продолжительность : 9 м. 55 с.
Вид битрейта : Постоянный
Битрейт : 384 Кбит/сек
Канал(ы) : 6 канала(ов)
Расположение каналов : Front: L C R, Side: L R, LFE
Частота : 48,0 КГц
Битовая глубина : 16 бит
Метод сжатия : С потерями
Задержка видео : -264 мс.
Размер потока : 27,2 Мбайт (4%)


Последний раз редактировалось: andreyvira (2011-02-25 00:00), всего редактировалось 2 раз(а)
[Профиль]  [ЛС] 

Aleksey

Стаж: 9 лет 4 месяца

Сообщений: 1205

Откуда: отсюда :)

post 24-Фев-2011 18:39 (спустя 22 часа)

[Цитировать]  [] 

скрины не оригинального разрешения.

_________________
"И напрасно я стану уверять, что сегодняшнее насилие создаст свободу завтра, — я внедряю только насилие. С жизнью не слукавишь. Не обманешь дерево, оно потянется туда, куда его направят. Прочее — ветер слов. И если мне кажется, что я жертвую вот этим поколением во имя счастья последующих, я просто-напросто жертвую людьми. Не этими и не теми, а всеми разом. Всех людей я обрекаю на злосчастье. Прочее — ветер слов. И если я воюю во имя мира, я укрепляю войну. С помощью войны не установить мира."
Антуан де Сент-Экзюпери. Цитадель
[Профиль]  [ЛС] 

Blessing

Стаж: 8 лет 8 месяцев

Сообщений: 2573

post 25-Фев-2011 17:05 (спустя 22 часа)

[Цитировать]  [] 

Aleksey писал(а):

скрины не оригинального разрешения.
я дооформил

_________________
И все, что делаете, делайте от души, как для Господа, а не для человеков (Кол.3:23)
[Профиль]  [ЛС] 

Blessing

Стаж: 8 лет 8 месяцев

Сообщений: 2573

post 25-Фев-2011 18:29 (спустя 1 час 24 минуты)

[Цитировать]  [] 

Супер материал! Всем смотреть!

Релизеру респект и уважуха! А главное - благословений!

_________________
И все, что делаете, делайте от души, как для Господа, а не для человеков (Кол.3:23)
[Профиль]  [ЛС] 

Aleksey

Стаж: 9 лет 4 месяца

Сообщений: 1205

Откуда: отсюда :)

post 26-Фев-2011 23:02 (спустя 1 день 4 часа)

[Цитировать]  [] 

«Трагедия Валтасара это манифестация божественного правосудия, грозное предупреждение тем, кто легкомысленно забывает, что над ним надзирает Всевышний...» — автор Алексей Ледяев

Постановка «Пир Валтасара» является фрагментом рок-оперы «GAME IS OVER» пастора Алексея Ледяева. Премьера состоялась 27 ноября 2009 года в Риге, Латвия, во время конференции церкви «Новое поколение», посвященной её 20-летнему юбилею. Премьера полного варианта мистерии «GAME IS OVER» состоится в июле 2011 г. в Риге.

Официальная информация и приобретение DVD-диска «Пир Валтасара» на сайте: www.gameisover.info

_________________
"И напрасно я стану уверять, что сегодняшнее насилие создаст свободу завтра, — я внедряю только насилие. С жизнью не слукавишь. Не обманешь дерево, оно потянется туда, куда его направят. Прочее — ветер слов. И если мне кажется, что я жертвую вот этим поколением во имя счастья последующих, я просто-напросто жертвую людьми. Не этими и не теми, а всеми разом. Всех людей я обрекаю на злосчастье. Прочее — ветер слов. И если я воюю во имя мира, я укрепляю войну. С помощью войны не установить мира."
Антуан де Сент-Экзюпери. Цитадель
[Профиль]  [ЛС] 

Aleksey

Стаж: 9 лет 4 месяца

Сообщений: 1205

Откуда: отсюда :)

post 28-Фев-2011 00:16 (спустя 1 день 1 час)

[Цитировать]  [] 

Blessing писал(а):

Присоединяюсь к обновленной раздаче.
спасибо! а то раздавать смогу еще два часа и завтра днем продолжу.

рип почти готов. скоро...

_________________
"И напрасно я стану уверять, что сегодняшнее насилие создаст свободу завтра, — я внедряю только насилие. С жизнью не слукавишь. Не обманешь дерево, оно потянется туда, куда его направят. Прочее — ветер слов. И если мне кажется, что я жертвую вот этим поколением во имя счастья последующих, я просто-напросто жертвую людьми. Не этими и не теми, а всеми разом. Всех людей я обрекаю на злосчастье. Прочее — ветер слов. И если я воюю во имя мира, я укрепляю войну. С помощью войны не установить мира."
Антуан де Сент-Экзюпери. Цитадель
[Профиль]  [ЛС] 
Показать сообщения:    
Ответить на тему

Текущее время: 18-Янв 05:28

Часовой пояс: GMT + 4



Вы не можете начинать темы
Вы не можете отвечать на сообщения
Вы не можете редактировать свои сообщения
Вы не можете удалять свои сообщения
Вы не можете голосовать в опросах
Вы не можете прикреплять файлы к сообщениям
Вы не можете скачивать файлы
[  Execution time: 0.288 sec  |  MySQL: 12 queries |  GZIP ON  |  Mem: 597.24 KB / 4.02 MB / 3.56 MB  |  Load: 1.6 2.1 1.9  ]