Loading...
Error

Бенни Хинн - О силе Крови - Орландо (N/A) TVRip

Статистика раздачи
Нет
 
     
 
 
Автор Сообщение

Blessing

Стаж: 8 лет 6 месяцев

Сообщений: 2573

post 27-Фев-2010 00:24

[Цитировать]  [] 

Бенни Хинн - О силе Крови - Орландо

Название: О силе крови
Проповедует: Бенни Хинн
Жанр: Проповедь, учение
Страна: США, Орландо

Продолжительность: 00:53:51
Перевод: Профессиональный, одноголосый

Описание: В этой проповеди Бенни Хинн говорит о силе в Крови Христа. В программе участвует известный певец Carman.

Формат: AVI
Качество: TVRip
Видео: DivX 5.0, 384x276, 25.000 fps, 780 Кбит/с
Аудио: MP3, стерео, 44.1 KHz, 96 Кбит/с
Format : AVI
Format/Info : Audio Video Interleave
File size : 341 MiB
Duration : 53mn 51s
Overall bit rate : 886 Kbps
Writing library : VirtualDub build 12667/release

Video
ID : 0
Format : MPEG-4 Visual
Format settings, BVOP : Yes
Format settings, QPel : No
Format settings, GMC : No warppoints
Format settings, Matrix : Default (H.263)
Codec ID : DX50
Codec ID/Hint : DivX 5
Duration : 53mn 51s
Bit rate : 780 Kbps
Width : 384 pixels
Height : 276 pixels
Display aspect ratio : 1.391
Frame rate : 25.000 fps
Resolution : 8 bits
Scan type : Progressive
Bits/(Pixel*Frame) : 0.295
Stream size : 301 MiB (88%)
Writing library : DivX 5.0.2 (UTC 2002-05-16)

Audio
ID : 1
Format : MPEG Audio
Format version : Version 1
Format profile : Layer 3
Mode : Joint stereo / Intensity Stereo + MS Stereo
Codec ID : 55
Codec ID/Hint : MP3
Duration : 53mn 51s
Bit rate mode : Constant
Bit rate : 96.0 Kbps
Channel(s) : 2 channels
Sampling rate : 44.1 KHz
Video delay : 25ms
Stream size : 36.9 MiB (11%)
Alignment : Split accross interleaves
Interleave, duration : 40 ms (1.00 video frame)
Interleave, preload duration : 500 ms
[Профиль]  [ЛС] 

Aleksey

Стаж: 9 лет 2 месяца

Сообщений: 1205

Откуда: отсюда :)

post 20-Окт-2011 14:19 (спустя 1 год 7 месяцев)

[Цитировать]  [] 

Скачан: 50 раз. Раздает один релизер.

Ну как здесь не заплакать? Просто нет слов... Благослови вас БОГ!!!

_________________
"И напрасно я стану уверять, что сегодняшнее насилие создаст свободу завтра, — я внедряю только насилие. С жизнью не слукавишь. Не обманешь дерево, оно потянется туда, куда его направят. Прочее — ветер слов. И если мне кажется, что я жертвую вот этим поколением во имя счастья последующих, я просто-напросто жертвую людьми. Не этими и не теми, а всеми разом. Всех людей я обрекаю на злосчастье. Прочее — ветер слов. И если я воюю во имя мира, я укрепляю войну. С помощью войны не установить мира."
Антуан де Сент-Экзюпери. Цитадель
[Профиль]  [ЛС] 
Показать сообщения:    
Ответить на тему

Текущее время: 20-Ноя 11:36

Часовой пояс: GMT + 4



Вы не можете начинать темы
Вы не можете отвечать на сообщения
Вы не можете редактировать свои сообщения
Вы не можете удалять свои сообщения
Вы не можете голосовать в опросах
Вы не можете прикреплять файлы к сообщениям
Вы не можете скачивать файлы
[  Execution time: 0.225 sec  |  MySQL: 12 queries |  GZIP ON  |  Mem: 597.25 KB / 4 MB / 3.45 MB  |  Load: 0.4 0.4 0.3  ]