Loading...
Error

Hillsong United Aftermath Live In Miami (2012) WEBRip

Статистика раздачи
Нет
 
     
 
 
Автор Сообщение

Blessing

Стаж: 9 лет 4 месяца

Сообщений: 2574

post 21-Фев-2012 21:59

[Цитировать]  [] 

Hillsong United Aftermath Live In Miami
Live album by Hillsong United

Released 14 February 2012
Recorded 6 August 2011
Genre Contemporary Christian
Label Hillsong Music Australia

Продолжительность: 02:20:35
Язык: Английский

Описание: Live in Miami was recorded at the American Airlines Arena on August 6, 2011 and captures a raw, authentic worship experience in a stadium filled with thousands of people set on worshipping Jesus Christ. Including such favorites as ,‘Mighty To Save’, ‘Hosanna’, ‘The Stand’ and, ‘Aftermath’ Live in Miami contains 22 songs and over 2 hours of breath-taking moments and inspiring anthems

Live in Miami был записан в American Airlines Arena 6 августа 2011 г. Тысячи людей собрались на стадионе в истинном поклонении Иисусу Христу. В концерт вошли такие известные песни как ‘Mighty To Save’, ‘Hosanna’, ‘The Stand’ and, ‘Aftermath’. Live in Miami содержит 22 песни, звучащими более 2 часов с захватывающими дух моментами гимнами поклонения и хвалы. (Перевод: Blessing)

Формат: FLV
Качество: WEBRip
Видео: MPEG4 Video (H264) 864x480, 29.970 fps, 16:9, 615 Кбит/с
Аудио: AAC, стерео, 44.1 KHz, 129 Кбит/с
01 "Go"
02 "Break Free"
03 "You"
04 "Search My Heart"
05 "Mighty To Save"
06 "Hosanna"
07 "All I Need Is You"
07 "Bones"
09 "Nova"
10 "Aftermath"
11 "Freedom Is Here/Shout Unto God"
12 "Like An Avalanche"
13 "Rhythms Of Grace"
14 "Oh You Bring"
15 "The Stand"
16 "From The Inside Out"
17 "A Song To Sing..."
18 "With Everything"
19 "Your Name High"
20 "Take It All"
21 "Yours Forever"
22 "Take Heart"
Hillsong United- 2012 - Live In Miami VIDEO\Hillsong United - Live in Miami .flv
General
Complete name : I:\Muzical_DVD\HILLSONG\Hillsong United- 2012 - Live In Miami VIDEO\Hillsong United - Live in Miami .flv
Format : Flash Video
File size : 756 MiB
Duration : 2h 20mn
Overall bit rate : 752 Kbps
httphostheader : r19.ber01s04.c.youtube.com
Video
Format : AVC
Format/Info : Advanced Video Codec
Format profile : Main@L3.1
Format settings, CABAC : Yes
Format settings, ReFrames : 3 frames
Muxing mode : Container profile=Unknown@3.1
Duration : 2h 20mn
Bit rate : 615 Kbps
Width : 854 pixels
Height : 480 pixels
Display aspect ratio : 16:9
Frame rate mode : Variable
Frame rate : 29.970 fps
Resolution : 24 bits
Colorimetry : 4:2:0
Scan type : Progressive
Bits/(Pixel*Frame) : 0.050
Stream size : 618 MiB (82%)
Audio
Format : AAC
Format/Info : Advanced Audio Codec
Format version : Version 4
Format profile : LC
Format settings, SBR : No
Duration : 2h 20mn
Bit rate : 129 Kbps
Channel(s) : 2 channels
Channel positions : L R
Sampling rate : 44.1 KHz
Resolution : 16 bits
Stream size : 129 MiB (17%)

_________________
И все, что делаете, делайте от души, как для Господа, а не для человеков (Кол.3:23)
[Профиль]  [ЛС] 

Blessing

Стаж: 9 лет 4 месяца

Сообщений: 2574

post 24-Фев-2012 21:45 (спустя 2 дня 23 часа)

[Цитировать]  [] 

эхма, когда же лицуха появится...?

_________________
И все, что делаете, делайте от души, как для Господа, а не для человеков (Кол.3:23)
[Профиль]  [ЛС] 
Показать сообщения:    
Ответить на тему

Текущее время: 22-Сен 09:10

Часовой пояс: GMT + 4



Вы не можете начинать темы
Вы не можете отвечать на сообщения
Вы не можете редактировать свои сообщения
Вы не можете удалять свои сообщения
Вы не можете голосовать в опросах
Вы не можете прикреплять файлы к сообщениям
Вы не можете скачивать файлы
[  Execution time: 2.388 sec  |  MySQL: 16 queries |  GZIP ON  |  Mem: 597.55 KB / 4.01 MB / 3.45 MB  |  Load: 0.9 0.6 0.5  ]