Loading...
Error

IHOP - Onething 2006 - Justin Rizzo (2006) DVDRip

Статистика раздачи
Нет
 
     
 
 
Автор Сообщение

Blessing

Стаж: 9 лет 5 месяцев

Сообщений: 2574

post 01-Мар-2010 23:39

[Цитировать]  [] 

IHOP - Onething 2006 - Justin Rizzo

Год выпуска: 2006
Выпущено: IHOP
Жанр: Prophetic Worship

Продолжительность: 00:56:31
Язык: English
Субтитры: отсутствуют

Описание: Запись служения поклонения с конференции Onething - 2006 (просто супер!) для настоящих поклонников и для тех, кто хочет таковым стать!

Формат: AVI
Качество: DVDRip
Видео: XVID, 688x304 (16:9), 29,970 fps, 3188 Кбит/с
Аудио: MP3, 48.0 KHz, 2 ch, 192 Кбит/с
Format : AVI
Format/Info : Audio Video Interleave
File size : 1.34 GiB
Duration : 56mn 31s
Overall bit rate : 3 389 Kbps
Writing application : VirtualDubMod 1.5.4.1 (build 2178/release)
Writing library : VirtualDubMod build 2178/release

Video
ID : 0
Format : MPEG-4 Visual
Format profile : Advanced Simple@L5
Format settings, BVOP : No
Format settings, QPel : No
Format settings, GMC : No warppoints
Format settings, Matrix : Custom
Codec ID : XVID
Codec ID/Hint : XviD
Duration : 56mn 31s
Bit rate : 3 188 Kbps
Width : 688 pixels
Height : 304 pixels
Display aspect ratio : 2.25:1
Frame rate : 29.970 fps
Resolution : 8 bits
Colorimetry : 4:2:0
Scan type : Progressive
Bits/(Pixel*Frame) : 0.509
Stream size : 1.26 GiB (94%)
Writing library : XviD 1.3.0.dev55

Audio
ID : 1
Format : MPEG Audio
Format version : Version 1
Format profile : Layer 3
Mode : Joint stereo / MS Stereo
Codec ID : 55
Codec ID/Hint : MP3
Duration : 56mn 30s
Bit rate mode : Constant
Bit rate : 192 Kbps
Channel(s) : 2 channels
Sampling rate : 48.0 KHz
Stream size : 77.6 MiB (6%)
Alignment : Aligned on interleaves
Interleave, duration : 67 ms (2.00 video frames)
Interleave, preload duration : 504 ms
Writing library : LAME3.98r
Encoding settings : -m j -V 4 -q 2 -lowpass 18.6 -b 192
Вот уже 10 лет без остановки день и ночь, 24/7 звучит молитва и поклонение Господу в городе Канзас Сити США.
Служители разных конфессий, бизнесмены и врачи, политики и бомжи оставляют все и едут в IHOP с разных концов Земли по зову Господа чтобы служить и поклоняться Господу и только Ему.

Деяния 15:16-17: «16 Потом обращусь и воссоздам скинию Давидову падшую, и то, что в ней разрушено, воссоздам, и исправлю ее, 17 чтобы взыскали Господа прочие человеки и все народы, между которыми возвестится имя Мое, говорит Господь, творящий все сие.»

О копирайте:
"Our copyright is the right to copy." Mike Bickle, Founder, IHOP-KC
"Наш копирайт это ваше право делать копии" Майкл Бикл, основатель IHOP-KC
Прямая ссылка: Здесь
[Профиль]  [ЛС] 
Показать сообщения:    
Ответить на тему

Текущее время: 15-Ноя 00:16

Часовой пояс: GMT + 4



Вы не можете начинать темы
Вы не можете отвечать на сообщения
Вы не можете редактировать свои сообщения
Вы не можете удалять свои сообщения
Вы не можете голосовать в опросах
Вы не можете прикреплять файлы к сообщениям
Вы не можете скачивать файлы
[  Execution time: 2.234 sec  |  MySQL: 15 queries |  GZIP ON  |  Mem: 597.53 KB / 4 MB / 3.44 MB  |  Load: 0.3 0.5 0.4  ]