Loading...
Error

IHOP - Onething 2006 - Misty Edwards (2006) DVDRip

Статистика раздачи
Нет
 
     
 
 
Автор Сообщение

Blessing

Стаж: 9 лет 5 месяцев

Сообщений: 2574

post 01-Мар-2010 23:28

[Цитировать]  [] 

IHOP - Onething 2006 - Misty Edwards

Год выпуска: 2008
Выпущено: IHOP
Жанр: Prophetic Worship

Продолжительность: 01:23:37
Язык: English
Субтитры: отсутствуют

Описание: Запись служения поклонения с конференции Onething - 2006 (просто супер!) для настоящих поклонников и для тех, кто хочет таковым стать!

Формат: AVI
Качество: DVDRip
Видео: XVID, 688x304 (16:9), 29,970 fps, 2031 Кбит/с
Аудио: MP3, 48.0 KHz, 2 ch, 192 Кбит/с
Format : AVI
Format/Info : Audio Video Interleave
File size : 1.31 GiB
Duration : 1h 23mn
Overall bit rate : 2 234 Kbps
Writing application : VirtualDubMod 1.5.4.1 (build 2178/release)
Writing library : VirtualDub build 24478/release

Video
ID : 0
Format : MPEG-4 Visual
Format profile : Advanced Simple@L5
Format settings, BVOP : Yes
Format settings, QPel : No
Format settings, GMC : No warppoints
Format settings, Matrix : Custom
Codec ID : XVID
Codec ID/Hint : XviD
Duration : 1h 23mn
Bit rate : 2 031 Kbps
Width : 688 pixels
Height : 304 pixels
Display aspect ratio : 2.25:1
Frame rate : 29.970 fps
Resolution : 8 bits
Colorimetry : 4:2:0
Scan type : Progressive
Bits/(Pixel*Frame) : 0.324
Stream size : 1.19 GiB (91%)
Writing library : XviD 1.3.0.dev55

Audio
ID : 1
Format : MPEG Audio
Format version : Version 1
Format profile : Layer 3
Mode : Joint stereo / MS Stereo
Codec ID : 55
Codec ID/Hint : MP3
Duration : 1h 23mn
Bit rate mode : Constant
Bit rate : 192 Kbps
Channel(s) : 2 channels
Sampling rate : 48.0 KHz
Stream size : 115 MiB (9%)
Alignment : Aligned on interleaves
Interleave, duration : 33 ms (1.00 video frame)
Interleave, preload duration : 504 ms
Вот уже 10 лет без остановки день и ночь, 24/7 звучит молитва и поклонение Господу в городе Канзас Сити США.
Служители разных конфессий, бизнесмены и врачи, политики и бомжи оставляют все и едут в IHOP с разных концов Земли по зову Господа чтобы служить и поклоняться Господу и только Ему.

Деяния 15:16-17: «16 Потом обращусь и воссоздам скинию Давидову падшую, и то, что в ней разрушено, воссоздам, и исправлю ее, 17 чтобы взыскали Господа прочие человеки и все народы, между которыми возвестится имя Мое, говорит Господь, творящий все сие.»

О копирайте:
"Our copyright is the right to copy." Mike Bickle, Founder, IHOP-KC
"Наш копирайт это ваше право делать копии" Майкл Бикл, основатель IHOP-KC


Последний раз редактировалось: Blessing (2010-06-06 18:36), всего редактировалось 1 раз
[Профиль]  [ЛС] 

Vander

Стаж: 10 лет

Сообщений: 19

post 31-Мар-2010 03:56 (спустя 29 дней)

[Цитировать]  [] 

Spasibo Bolshoe.. :) Dolgo Iskal..
[Профиль]  [ЛС] 

Aleksey

Стаж: 10 лет

Сообщений: 1205

Откуда: отсюда :)

post 02-Апр-2010 05:39 (спустя 2 дня 1 час)

[Цитировать]  [] 

качать всем!!! ay

_________________
"И напрасно я стану уверять, что сегодняшнее насилие создаст свободу завтра, — я внедряю только насилие. С жизнью не слукавишь. Не обманешь дерево, оно потянется туда, куда его направят. Прочее — ветер слов. И если мне кажется, что я жертвую вот этим поколением во имя счастья последующих, я просто-напросто жертвую людьми. Не этими и не теми, а всеми разом. Всех людей я обрекаю на злосчастье. Прочее — ветер слов. И если я воюю во имя мира, я укрепляю войну. С помощью войны не установить мира."
Антуан де Сент-Экзюпери. Цитадель
[Профиль]  [ЛС] 
Показать сообщения:    
Ответить на тему

Текущее время: 15-Ноя 00:02

Часовой пояс: GMT + 4



Вы не можете начинать темы
Вы не можете отвечать на сообщения
Вы не можете редактировать свои сообщения
Вы не можете удалять свои сообщения
Вы не можете голосовать в опросах
Вы не можете прикреплять файлы к сообщениям
Вы не можете скачивать файлы
[  Execution time: 0.157 sec  |  MySQL: 11 queries |  GZIP ON  |  Mem: 597.53 KB / 4.01 MB / 3.45 MB  |  Load: 0.2 0.4 0.4  ]