Loading...
Error

Jason Upton - Spirit Breakout (2008) DVDRip

Статистика раздачи
Нет
 
     
 
 
Автор Сообщение

Blessing

Стаж: 9 лет 5 месяцев

Сообщений: 2574

post 26-Фев-2010 02:05

[Цитировать]  [] 

Jason Upton - Spirit Breakout

Год выхода: 07.11.2008
Выпущено: Morning Star Ministries
Жанр: Prophetic Woship

Описание: Очень помазанное пророческое поклонение Jason Upton (Джейсон Аптон), которое прерывается короткими пророческими посланиями и молитвами. Очень помазанное. (Spirit Breakout - буквально: "Вспышка Духа")

Продолжительность: 02:28:35
Язык: English
Субтитры: нет

Формат: MPEG-4
Качество: DVDRip
Видео: mp42, 712x436 (4:3), 29.970 fps, 302 Кбит/с VBR
Звук: AAC4, 44.1 KHz, 2 ch, 96-120 Кбит/с VBR
Format : MPEG-4
Format profile : Base Media / Version 2
Codec ID : mp42
File size : 429 MiB
Duration : 2h 28mn
Overall bit rate : 404 Kbps
Encoded date : UTC 2008-07-24 21:32:34
Tagged date : UTC 2008-07-24 23:54:19

Video
ID : 1
Format : AVC
Format/Info : Advanced Video Codec
Format profile : Main@L5.1
Format settings, CABAC : Yes
Format settings, ReFrames : 2 frames
Codec ID : avc1
Codec ID/Info : Advanced Video Coding
Duration : 2h 28mn
Bit rate mode : Variable
Bit rate : 302 Kbps
Nominal bit rate : 300 Kbps
Width : 712 pixels
Height : 436 pixels
Display aspect ratio : 1.452
Frame rate mode : Variable
Frame rate : 29.970 fps
Minimum frame rate : 29.959 fps
Maximum frame rate : 29.980 fps
Resolution : 8 bits
Colorimetry : 4:2:0
Scan type : Progressive
Bits/(Pixel*Frame) : 0.032
Stream size : 321 MiB (75%)
Writing library : x264 core 56
Encoding settings : cabac=1 / ref=1 / deblock=1:0:0 / analyse=0x1:0x111 / me=umh / subme=5 / brdo=0 / mixed_ref=0 / me_range=16 / chroma_me=1 / trellis=2 / 8x8dct=0 / cqm=0 / deadzone=21,11 / chroma_qp_offset=0 / threads=3 / nr=0 / decimate=0 / mbaff=0 / bframes=3 / b_pyramid=0 / b_adapt=1 / b_bias=0 / direct=1 / wpredb=0 / bime=0 / keyint=599 / keyint_min=25 / scenecut=40(pre) / rc=abr / bitrate=300 / ratetol=1.0 / rceq='blurCplx^(1-qComp)' / qcomp=0.60 / qpmin=10 / qpmax=51 / qpstep=4 / ip_ratio=1.40 / pb_ratio=1.30
Language : English
Encoded date : UTC 2008-07-24 21:32:34
Tagged date : UTC 2008-07-24 23:43:50

Audio
ID : 2
Format : AAC
Format/Info : Advanced Audio Codec
Format version : Version 4
Format profile : LC
Format settings, SBR : No
Codec ID : 40
Duration : 2h 28mn
Bit rate mode : Variable
Bit rate : 96.0 Kbps
Maximum bit rate : 120 Kbps
Channel(s) : 2 channels
Channel positions : L R
Sampling rate : 44.1 KHz
Resolution : 16 bits
Stream size : 102 MiB (24%)
Encoded date : UTC 2008-07-24 21:32:34
Tagged date : UTC 2008-07-24 23:43:50

Text
ID : 3
Format : Apple text
Codec ID : text
Duration : 2h 28mn
Bit rate : 0
Stream size : 24.0 Bytes (0%)
Language : English
Encoded date : UTC 2008-07-24 21:32:34
Tagged date : UTC 2008-07-24 23:43:50
Прямая ссылка:


Последний раз редактировалось: Blessing (2010-05-14 20:47), всего редактировалось 2 раз(а)
[Профиль]  [ЛС] 

frontera

Стаж: 8 лет 7 месяцев

Сообщений: 4

Украина

post 26-Мар-2010 21:04 (спустя 1 месяц)

[Цитировать]  [] 

Большое спасибо!!! ay ay ay

_________________
ИИСУС-ГОСПОДЬ!
[Профиль]  [ЛС] 
Показать сообщения:    
Ответить на тему

Текущее время: 14-Ноя 23:26

Часовой пояс: GMT + 4



Вы не можете начинать темы
Вы не можете отвечать на сообщения
Вы не можете редактировать свои сообщения
Вы не можете удалять свои сообщения
Вы не можете голосовать в опросах
Вы не можете прикреплять файлы к сообщениям
Вы не можете скачивать файлы
[  Execution time: 0.207 sec  |  MySQL: 11 queries |  GZIP ON  |  Mem: 597.53 KB / 4.03 MB / 3.47 MB  |  Load: 0.4 0.5 0.4  ]