Loading...
Error

Человек, который изменил всё / Moneyball (2011) BDRip, 1080p

Статистика раздачи
Нет
 
     
 
 
Автор Сообщение

Aleksey

Стаж: 9 лет

Сообщений: 1205

Откуда: отсюда :)

post 05-Фев-2012 21:14

[Цитировать]  [] 

Человек, который изменил всё / Moneyball (2011) BDRip, 1080p

Год выхода: 2011
Жанр: драма, биография, спорт
Режисcер: Беннетт Миллер
В ролях: Брэд Питт, Джона Хилл, Филип Сеймур Хоффман, Робин Райт, Крис Прэтт, Стефен Бишоп, Брент Дженнингс, Кен Медлок, Тэмми Бланчард, Джек МакГи

Выпущено: США - Columbia Pictures, Film Rites, Michael De Luca Productions, Scott Rudin Productions, Specialty Films (II)
Перевод: Профессиональный (дублированный) лицензия
Продолжительность: 02:13:14


Описание:
Русский
Фильм по книге Майкла M. Льюиса, изданной в 2003 году, об Оклендской бейсбольной команде и ее генеральном менеджере, Билли Бине. Его цель — создать конкурентоспособную бейсбольную команду, несмотря на финансовые трудности.

Українска
Фільм за книгою Майкла M. Льюїса, виданої в 2003 році, про Оклендської бейсбольній команді та її генеральному менеджері, Біллі Біне. Його мета - створити конкурентоспроможну бейсбольну команду, незважаючи на фінансові труднощі.

English
The story of Oakland A's general manager Billy Beane's successful attempt to put together a baseball club on a budget by employing computer-generated analysis to draft his players.

Формат: MKV
Качество: BDRip, 1080p
Видео: x.264, NTSC, 1920х1040 (16:9), 23.976 fps, 11400 kbps
Аудио#1: Украинский (Дублированный), AC3, 6ch (L, C, R, Ls, Rs +LFE), 640 kbps |Лицензия / Студия Le-Doyen|
Аудио#2: Русский (Дублированный), AC3, 6ch (L, C, R, Ls, Rs +LFE), 640 kbps |Лицензия / Видео-Сервис|
Аудио#3: Английский (Оригинал), DTS, 6ch (L, C, R, Ls, Rs +LFE), 1536 kbps
Субтитры: Украинский (форсированные), Русский (форсированные), Русский (Евгении Воронин - [voronine]), Английский

От себя:
Фильм основан на реальных событиях. Он неотносится напрямую к христианству, но имеет ценность и пользу для христиан. Повествует о том как стремиться к победе, не взирать на обстоятельства, быть одной командой поддерживая один другого, иметь цели и достигать ее, достигать и ставить новую цель, не сдаваться и подниматься даже когда упал.
Данный фильм достоен быть в коллекции вместе с такими шедеврами как "Непокоренный", "Нокдаун", "Радио" и т.д.

Выделю лишь одну из наиболее понравившихся фраз в русскоязычной озвучке:

"Может вы не похожи на победителей, но вы Победители"

Личная оценка: 9 из 10
• Роль владельца оклендской бейсбольной команды сыграл Бобби (Роберт) Котик - президент и член правления компьютерной компании Activision Blizzard.
Что означает "форсированные" субтитры мне не известно. Во всех плеерах (почему-то как ни странно кроме KMPlayer 2.9) мне была возможность увидеть/включить субтитры которые без форсирования, а именно: "Русский (Евгении Воронин - [voronine])" и "Английский". Доказательство о наличии форсированных субтитров можно увидеть в "MediaInfo".
Общее
Уникальный идентификатор : 251200624486215606548041832424547923915 (0xBCFB7B006372E884A8BEA0044D15B7CB)
Полное имя : F:\HDv0T\Moneyball.2011.1080p.BDRip.x264.ac3.dts.eng.rus-HDv0T.mkv
Формат : Matroska
Версия формата : Version 2
Размер файла : 13,2 Гбайт
Продолжительность : 2 ч. 13 м.
Общий поток : 14,2 Мбит/сек
Дата кодирования : UTC 2012-02-04 18:25:11
Программа кодирования : mkvmerge v4.9.0 ('Grüner') сборка от Jul 11 2011 09:22:19
Библиотека кодирования : libebml v1.2.1 + libmatroska v1.1.1

Видео
Идентификатор : 1
Формат : AVC
Формат/Информация : Advanced Video Codec
Профиль формата : High@L4.1
Параметр CABAC формата : Да
Параметр ReFrames формата : 4 кадра
Идентификатор кодека : V_MPEG4/ISO/AVC
Продолжительность : 2 ч. 13 м.
Битрейт : 11,4 Мбит/сек
Ширина : 1920 пикс.
Высота : 1040 пикс.
Соотношение сторон : 16:9
Частота кадров : 23,976 кадр/сек
Цветовое пространство : YUV
Подвыборка цветности : 4:2:0
Битовая глубина : 8 бит
Тип развёртки : Прогрессивная
Бит/(Пиксели*Кадры) : 0.238
Размер потока : 10,3 Гбайт (78%)
Библиотека кодирования : x264 core 98 r1649 c54c47d
Настройки программы : cabac=1 / ref=4 / deblock=1:-3:-3 / analyse=0x3:0x113 / me=umh / subme=9 / psy=1 / psy_rd=1.10:0.00 / mixed_ref=1 / me_range=32 / chroma_me=1 / trellis=2 / 8x8dct=1 / cqm=0 / deadzone=21,11 / fast_pskip=0 / chroma_qp_offset=-4 / threads=12 / sliced_threads=0 / nr=0 / decimate=0 / interlaced=0 / constrained_intra=0 / bframes=8 / b_pyramid=2 / b_adapt=2 / b_bias=0 / direct=3 / weightb=1 / weightp=2 / keyint=250 / keyint_min=25 / scenecut=40 / intra_refresh=0 / rc_lookahead=48 / rc=2pass / mbtree=1 / bitrate=11375 / ratetol=1.0 / qcomp=0.60 / qpmin=10 / qpmax=51 / qpstep=4 / cplxblur=20.0 / qblur=0.5 / ip_ratio=1.40 / aq=1:0.80
Язык : English

Аудио #1
Идентификатор : 2
Формат : AC-3
Формат/Информация : Audio Coding 3
Расширение режима : CM (complete main)
Идентификатор кодека : A_AC3
Продолжительность : 2 ч. 13 м.
Вид битрейта : Постоянный
Битрейт : 640 Кбит/сек
Каналы : 6 каналов
Расположение каналов : Front: L C R, Side: L R, LFE
Частота : 48,0 КГц
Битовая глубина : 16 бит
Метод сжатия : С потерями
Размер потока : 610 Мбайт (5%)
Заголовок : Дубляж (Студия Le-Doyen) AC-3 5.1 @ 640 kbps
Язык : Ukrainian

Аудио #2
Идентификатор : 3
Формат : AC-3
Формат/Информация : Audio Coding 3
Расширение режима : CM (complete main)
Идентификатор кодека : A_AC3
Продолжительность : 2 ч. 13 м.
Вид битрейта : Постоянный
Битрейт : 640 Кбит/сек
Каналы : 6 каналов
Расположение каналов : Front: L C R, Side: L R, LFE
Частота : 48,0 КГц
Битовая глубина : 16 бит
Метод сжатия : С потерями
Размер потока : 610 Мбайт (5%)
Заголовок : Дубляж (Видео-Сервис) AC-3 5.1 @ 640 kbps
Язык : Russian

Аудио #3
Идентификатор : 4
Формат : DTS
Формат/Информация : Digital Theater Systems
Идентификатор кодека : A_DTS
Продолжительность : 2 ч. 13 м.
Вид битрейта : Постоянный
Битрейт : 1510 Кбит/сек
Каналы : 6 каналов
Расположение каналов : Front: L C R, Side: L R, LFE
Частота : 48,0 КГц
Битовая глубина : 24 бит
Метод сжатия : С потерями
Размер потока : 1,41 Гбайт (11%)
Заголовок : DTS 5.1 @ 1536 kbps
Язык : English

Текст #1
Идентификатор : 5
Формат : PGS
Режим смешивания : zlib
Идентификатор кодека : S_HDMV/PGS
Идентификатор кодека/Информация : The same subtitle format used on BDs/HD-DVDs
Заголовок : Forced
Язык : Ukrainian

Текст #2
Идентификатор : 6
Формат : UTF-8
Идентификатор кодека : S_TEXT/UTF8
Идентификатор кодека/Информация : UTF-8 Plain Text
Заголовок : Forced
Язык : Russian

Текст #3
Идентификатор : 7
Формат : UTF-8
Идентификатор кодека : S_TEXT/UTF8
Идентификатор кодека/Информация : UTF-8 Plain Text
Заголовок : Evgenii Voronin - [voronine]
Язык : Russian

Текст #4
Идентификатор : 8
Формат : UTF-8
Идентификатор кодека : S_TEXT/UTF8
Идентификатор кодека/Информация : UTF-8 Plain Text
Заголовок : SDH
Язык : English

_________________
"И напрасно я стану уверять, что сегодняшнее насилие создаст свободу завтра, — я внедряю только насилие. С жизнью не слукавишь. Не обманешь дерево, оно потянется туда, куда его направят. Прочее — ветер слов. И если мне кажется, что я жертвую вот этим поколением во имя счастья последующих, я просто-напросто жертвую людьми. Не этими и не теми, а всеми разом. Всех людей я обрекаю на злосчастье. Прочее — ветер слов. И если я воюю во имя мира, я укрепляю войну. С помощью войны не установить мира."
Антуан де Сент-Экзюпери. Цитадель


Последний раз редактировалось: Aleksey (2012-02-05 23:19), всего редактировалось 3 раз(а)
[Профиль]  [ЛС] 

Aleksey

Стаж: 9 лет

Сообщений: 1205

Откуда: отсюда :)

post 05-Фев-2012 21:27 (спустя 13 минут)

[Цитировать]  [] 

к сожалению у меня нет возможности сделать ЗОЛОТО, просите администрацию если в этом будет необходимость.
благословений!

_________________
"И напрасно я стану уверять, что сегодняшнее насилие создаст свободу завтра, — я внедряю только насилие. С жизнью не слукавишь. Не обманешь дерево, оно потянется туда, куда его направят. Прочее — ветер слов. И если мне кажется, что я жертвую вот этим поколением во имя счастья последующих, я просто-напросто жертвую людьми. Не этими и не теми, а всеми разом. Всех людей я обрекаю на злосчастье. Прочее — ветер слов. И если я воюю во имя мира, я укрепляю войну. С помощью войны не установить мира."
Антуан де Сент-Экзюпери. Цитадель
[Профиль]  [ЛС] 
Показать сообщения:    
Ответить на тему

Текущее время: 25-Сен 06:28

Часовой пояс: GMT + 4



Вы не можете начинать темы
Вы не можете отвечать на сообщения
Вы не можете редактировать свои сообщения
Вы не можете удалять свои сообщения
Вы не можете голосовать в опросах
Вы не можете прикреплять файлы к сообщениям
Вы не можете скачивать файлы
[  Execution time: 2.202 sec  |  MySQL: 15 queries |  GZIP ON  |  Mem: 597.55 KB / 4.03 MB / 3.48 MB  |  Load: 0.3 0.3 0.4  ]