Loading...
Error

Сотворившая чудо / The Miracle Worker (Артур Пенн) [1962 г., Драма, биография, DVDRip]

Статистика раздачи
Нет
 
     
 
 
Автор Сообщение

SKLYARAN74

Стаж: 6 лет 4 месяца

Сообщений: 10

Украина

post 09-Июн-2011 23:07

[Цитировать]  [] 

Сотворившая чудо / The Miracle Worker

Год выпуска: 1962
Страна: США
Жанр: Драма, биография
Продолжительность: 01:46:40
Перевод: Профессиональный (двухголосый)

Режиссер: Артур Пенн

В ролях: Энн Бэнкрофт, Виктор Джори, Инга Суэнсон, Эндрю Прайн, Кэтлин Комегис, Пэтти Дьюк, Дайан Брайан, Донна Брайан, Пегги Бурк, Кейт Мур

Описание: «Сотворившая чудо» - это мощная картина, которая захватывает уже тогда, когда идут титры. Фильм основан на реальных событиях произошедших с Хелен Адамс Келлер (англ. Helen Adams Keller; 1880 — 1968). Хелена Келлер родилась 27 июня 1880 в городке Таскамбия, в штате Алабама, в семье капитана Артура Келлера и Кэйт Адамс Келлер. То была совершенно нормальная девочка, но 19 месяцев от роду она тяжело заболела. Когда, вопреки всем прогнозам, девочка все-таки выжила, мать обнаружила, что она перестала реагировать на звуки и свет. Хелен Келлер оглохла и ослепла - на всю жизнь. Очень скоро она стала практически неуправляемой, и родители подумывали о том, чтобы отдать ее в какое-нибудь стационарное (и даже психиатрическое) учреждение. Но в 1887 году родители решили взять в гувернантки для дочери молоденькую скромную учительницу Анну Салливан, тоже перенесшую слепоту в детском возрасте. Анна Салливан хорошо сознавала, какое огромное, почти непосильное бремя она берет на себя в борьбе за то, чтобы пробудить в погруженном в вечный мрак существе человеческую душу, зажечь в нем драгоценную искру мысли. Салливан потребовала у отца, чтобы девочку изолировали от остальных членов семьи в маленьком доме в саду. Удастся ли ей сотворить чудо? «Я благодарна Богу за мои физические недостатки. Они помогли мне найти себя, мой труд и моего Бога». «За три вещи я благодарна Богу каждый день: за то, что Он благоволил даровать мне познание дел Его рук, глубоко благодарна за то, что в моей тьме Он зажег во мне светильник веры и глубочайше благодарна за то, что Он даровал мне иную жизнь, на которую я могу смотреть с надеждой вперед – жизнь радостную, со светом, цветами и небесной песней».

Качество: DVDRip
Формат: AVI
Видео кодек: XviD
Аудио кодек: MP3
Видео: MPEG-4;849 Kbps;656х400 pixels;23.976 fps
Аудио: MPEG Audio\Layer 3;112 Kbps;2 channels;44.1 KHz


General
Complete name :Сотворившая чудо.avi
Format : AVI
Format/Info : Audio Video Interleave
File size : 741 MiB
Duration : 1h 46mn
Overall bit rate : 971 Kbps
Writing application : VirtualDubMod 1.5.10.2 (build 2540/release)
Writing library : VirtualDubMod build 2540/release

Video
ID : 0
Format : MPEG-4 Visual
Format profile : Advanced Simple@L5
Format settings, BVOP : 1
Format settings, QPel : No
Format settings, GMC : No warppoints
Format settings, Matrix : Default (MPEG)
Codec ID : XVID
Codec ID/Hint : XviD
Duration : 1h 46mn
Bit rate : 849 Kbps
Width : 656 pixels
Height : 400 pixels
Display aspect ratio : 1.640
Frame rate : 23.976 fps
Color space : YUV
Chroma subsampling : 4:2:0
Bit depth : 8 bits
Scan type : Progressive
Compression mode : Lossy
Bits/(Pixel*Frame) : 0.135
Stream size : 648 MiB (87%)
Writing library : XviD 1.2.0.dev47 (UTC 2006-11-01)

Audio
ID : 1
Format : MPEG Audio
Format version : Version 1
Format profile : Layer 3
Codec ID : 55
Codec ID/Hint : MP3
Duration : 1h 46mn
Bit rate mode : Constant
Bit rate : 112 Kbps
Channel(s) : 2 channels
Sampling rate : 44.1 KHz
Compression mode : Lossy
Stream size : 85.5 MiB (12%)
Alignment : Split accross interleaves
Interleave, duration : 42 ms (1.00 video frame)
Interleave, preload duration : 500 ms
Writing library : LAME3.97
Encoding settings : -m s -V 4 -q 2 -lowpass 15.6 -b 112


Последний раз редактировалось: SKLYARAN74 (2011-06-13 11:00), всего редактировалось 2 раз(а)
[Профиль]  [ЛС] 

post 10-Июн-2011 08:58 (спустя 9 часов)

[] 

Топик был перенесен из форума Тестовый форум (новые релизы размещать здесь!!!!) в форум Хорошие фильмы

Blessing
 

EternalDen

Стаж: 6 лет 6 месяцев

Сообщений: 1

post 11-Июн-2011 09:29 (спустя 1 день 10 часов)

[Цитировать]  [] 

А можно скорости дать?
[Профиль]  [ЛС] 

Гриша

Стаж: 5 лет 7 месяцев

Сообщений: 1

Украина

post 07-Янв-2012 19:35 (спустя 6 месяцев)

[Цитировать]  [] 

Неплохой фильм

_________________
1 Не торопись языком твоим, и сердце твое да не спешит произнести слово пред Богом; потому что Бог на небе, а ты на земле; поэтому слова твои да будут немноги.
[Профиль]  [ЛС] 
Показать сообщения:    
Ответить на тему

Текущее время: 20-Авг 19:31

Часовой пояс: GMT + 4



Вы не можете начинать темы
Вы не можете отвечать на сообщения
Вы не можете редактировать свои сообщения
Вы не можете удалять свои сообщения
Вы не можете голосовать в опросах
Вы не можете прикреплять файлы к сообщениям
Вы не можете скачивать файлы
[  Execution time: 0.172 sec  |  MySQL: 11 queries |  GZIP ON  |  Mem: 597.24 KB / 4.04 MB / 3.48 MB  |  Load: 0.3 0.4 0.5  ]