Loading...
Error

Delirious? - Farewell Show (Live in London) (2010) BDRip [720p]

Статистика раздачи
Нет
 
     
 
 
Автор Сообщение

Blessing

Стаж: 9 лет 7 месяцев

Сообщений: 2574

post 24-Сен-2010 03:38

[Цитировать]  [] 

Delirious? - Farewell Show (Live in London) (2010) [720p]

Название: Delirious? Farewell Show Live In London
Дата релиза: May 18, 2010
Жанр: Brit-Rock, Modern Worship

Язык: English
Продолжительность: 01:25:41

Описание:
On Sunday the 29th of November 2009, five thousand fans were wedged into the sold out HMV Hammersmith Apollo Theatre, ready to see history get made as a seventeen-year voyage of worship discovery drew to a close. This was the final gig for Delirious?, and there could hardly have been a better celebration of all that God has done through this band. Twenty-four hours later, Martin Smith had this to say:’ What can I say? It was awesome, sad, happy, and definitive. One can never correctly adjudicate ones emotions at times like this but I feel at peace. I feel joy. I feel like I’ve completed an assignment.’

And what an assignment it was. A Dove Award-winning, Grammy nominated, RIAA Certified Gold-selling assignment. Delirious? helped score a whole new soundtrack for the church around the world, bringing honesty, passion, intimacy and heavenly pride back to the church and beyond. And it’s not quite over yet…now we have the release of this DVD capturing the final concert!


Формат: MKV
Качество: BDRip [720p]
Video: MPEG4 Video (H264) 1280x720 (16:9) 29.97fps 5926 Kbps
Audio: DTS 48000Hz 6ch 1510 Kbps

МР3 Здесь
DVDRip (700 Мб) Здесь
DVDRip (1.37 Гб) Здесь
DVD9: Здесь
Delirious?: Farewell Show
01. All This Time
02. Bliss
03. Solid Rock
04. Sanctify
05. Obsession
06. Rain Down
07. Deeper
08. Paint The Town Red
09. Inside Outside
10. Jesus Blood / King or Cripple / True Colours
11. Majesty
12. Our God Reigns
13. Investigate
14. History Maker
15. My Soul Sings
\Delirious.Farewell.Show.Live.In.London.2010.BluRay.720p.DTS.x264-M&M.mkv
Format : Matroska
File size : 4.54 GiB
Duration : 1h 25mn
Overall bit rate : 7 587 Kbps
Writing application : HandBrake 0.9.4

Video
ID : 1
Format : AVC
Format/Info : Advanced Video Codec
Format profile : Main@L3.1
Format settings, CABAC : Yes
Format settings, ReFrames : 2 frames
Muxing mode : Container profile=Unknown@3.1
Codec ID : V_MPEG4/ISO/AVC
Duration : 1h 25mn
Bit rate : 5 926 Kbps
Width : 1 280 pixels
Height : 720 pixels
Display aspect ratio : 16:9
Frame rate : 29.970 fps
Resolution : 8 bits
Colorimetry : 4:2:0
Scan type : Progressive
Bits/(Pixel*Frame) : 0.215
Stream size : 3.55 GiB (78%)
Writing library : x264 core 79
Encoding settings : cabac=1 / ref=2 / deblock=1:0:0 / analyse=0x1:0x111 / me=hex / subme=6 / psy=1 / psy_rd=1.0:0.0 / mixed_ref=0 / me_range=16 / chroma_me=1 / trellis=0 / 8x8dct=0 / cqm=0 / deadzone=21,11 / chroma_qp_offset=-2 / threads=3 / nr=0 / decimate=1 / mbaff=0 / constrained_intra=0 / bframes=2 / b_pyramid=0 / b_adapt=1 / b_bias=0 / direct=1 / wpredb=0 / wpredp=2 / keyint=300 / keyint_min=30 / scenecut=40 / rc_lookahead=40 / rc=crf / mbtree=1 / crf=18.3 / qcomp=0.60 / qpmin=10 / qpmax=51 / qpstep=4 / ip_ratio=1.40 / aq=1:1.00
Color primaries : BT.709-5, BT.1361, IEC 61966-2-4, SMPTE RP177
Transfer characteristics : BT.709-5, BT.1361
Matrix coefficients : BT.709-5, BT.1361, IEC 61966-2-4 709, SMPTE RP177

Audio
ID : 2
Format : DTS
Format/Info : Digital Theater Systems
Codec ID : A_DTS
Duration : 1h 25mn
Bit rate mode : Constant
Bit rate : 1 510 Kbps
Channel(s) : 6 channels
Channel positions : Front: L C R, Side: L R, LFE
Sampling rate : 48.0 KHz
Resolution : 24 bits
Stream size : 925 MiB (20%)

_________________
И все, что делаете, делайте от души, как для Господа, а не для человеков (Кол.3:23)
[Профиль]  [ЛС] 

U2BONO

Стаж: 8 лет 6 месяцев

Сообщений: 17

Откуда: Latvia

Латвия

post 24-Сен-2010 22:01 (спустя 18 часов)

[Цитировать]  [] 

выложили бы полный BluRay..
[Профиль]  [ЛС] 

Aleksey

Стаж: 10 лет

Сообщений: 1205

Откуда: отсюда :)

post 24-Сен-2010 23:38 (спустя 1 час 36 минут)

[Цитировать]  [] 

пока нет в наличии.

_________________
"И напрасно я стану уверять, что сегодняшнее насилие создаст свободу завтра, — я внедряю только насилие. С жизнью не слукавишь. Не обманешь дерево, оно потянется туда, куда его направят. Прочее — ветер слов. И если мне кажется, что я жертвую вот этим поколением во имя счастья последующих, я просто-напросто жертвую людьми. Не этими и не теми, а всеми разом. Всех людей я обрекаю на злосчастье. Прочее — ветер слов. И если я воюю во имя мира, я укрепляю войну. С помощью войны не установить мира."
Антуан де Сент-Экзюпери. Цитадель
[Профиль]  [ЛС] 

Aleksey

Стаж: 10 лет

Сообщений: 1205

Откуда: отсюда :)

post 03-Июн-2011 23:03 (спустя 8 месяцев)

[Цитировать]  [] 

стал на раздачу. если что - пишите в ЛС.

_________________
"И напрасно я стану уверять, что сегодняшнее насилие создаст свободу завтра, — я внедряю только насилие. С жизнью не слукавишь. Не обманешь дерево, оно потянется туда, куда его направят. Прочее — ветер слов. И если мне кажется, что я жертвую вот этим поколением во имя счастья последующих, я просто-напросто жертвую людьми. Не этими и не теми, а всеми разом. Всех людей я обрекаю на злосчастье. Прочее — ветер слов. И если я воюю во имя мира, я укрепляю войну. С помощью войны не установить мира."
Антуан де Сент-Экзюпери. Цитадель
[Профиль]  [ЛС] 

Alan Cecil

Стаж: 6 лет 7 месяцев

Сообщений: 5

Индия

post 17-Май-2012 16:36 (спустя 11 месяцев)

[Цитировать]  [] 

Please seed the torrent.. Please.. I am not able to download..
[Профиль]  [ЛС] 

Alan Cecil

Стаж: 6 лет 7 месяцев

Сообщений: 5

Индия

post 18-Май-2012 13:59 (спустя 21 час)

[Цитировать]  [] 

Hello!!! Please help me with downloading.. I am not getting the speed.. I am stuck at 48%..
[Профиль]  [ЛС] 

Blessing

Стаж: 9 лет 7 месяцев

Сообщений: 2574

post 18-Май-2012 22:34 (спустя 8 часов)

[Цитировать]  [] 

Alan Cecil
пожалуйста... только вас нет в качающих... только просьбы по топикам, а это - нарушение правил. Пишите личное сообщение релизеру.

_________________
И все, что делаете, делайте от души, как для Господа, а не для человеков (Кол.3:23)
[Профиль]  [ЛС] 

Traveller

Стаж: 5 лет 10 месяцев

Сообщений: 1

post 12-Фев-2013 20:30 (спустя 8 месяцев)

[Цитировать]  [] 

Это не полный концерт...
[Профиль]  [ЛС] 

defender (v2.0)

post 14-Фев-2013 00:48 (спустя 1 день 4 часа)

[Цитировать]  [] 

Traveller писал(а):

Это не полный концерт...
ну понятно, вы видимо не читали внимательно продолжительность в описании.

полный концерт смотрите на двд
http://blessing.jc-club.org.ua/viewtopic.php?t=3570
 
Показать сообщения:    
Ответить на тему

Текущее время: 19-Дек 19:57

Часовой пояс: GMT + 4



Вы не можете начинать темы
Вы не можете отвечать на сообщения
Вы не можете редактировать свои сообщения
Вы не можете удалять свои сообщения
Вы не можете голосовать в опросах
Вы не можете прикреплять файлы к сообщениям
Вы не можете скачивать файлы
[  Execution time: 0.304 sec  |  MySQL: 12 queries |  GZIP ON  |  Mem: 597.53 KB / 4.07 MB / 3.53 MB  |  Load: 0.5 0.8 0.8  ]