Loading...
Error

Delirious? (Studio) - The Mission Bell (2005) FLAC

Статистика раздачи
Нет
 
     
 
 
Автор Сообщение

Blessing

Стаж: 9 лет 3 месяца

Сообщений: 2574

post 21-Июн-2010 23:53

[Цитировать]  [] 

Delirious? (Studio) - The Mission Bell (2005)
Studio album by Delirious?

Released: 7 November 2005
Genre: Rock, Christian Rock
Label: Furious?
Producer: Sam Gibson and Delirious?

The Mission Bell is the sixth studio album by Delirious?. It was released in the UK on 7 November 2005. It was released in the US on December 27, 2005.

Track listing:
01 "Stronger" – 4:51
02 "Now Is The Time" – 4:05 (co-written with Matt Redman)
03 "Solid Rock" – 4:33 (featuring Tobymac on rap)
04 "All This Time" – 5:26
05 "Miracle Maker" – 5:44
06 "Here I Am, Send Me" – 4:13
07 "Fires Burn" – 4:18
08 "Our God Reigns" – 5:41
09 "Love Is A Miracle" – 3:48 (featuring soundbites by DJ A Skillz)
10 "Paint The Town Red" – 2:19
11 "Take Off My Shoes" – 6:28
12 "I'll See You" – 3:44 (featuring Moya Brennan on vocals and Steve Mason on steel pedal)

Формат / Качество: FLAC
Продолжительность: 00:55:12
On 10 October 2005, Delirious? released "Paint The Town Red" as a single. The single reached number fifteen in the iTunes UK charts in the middle of the week; it entered the UK Singles Charts at number fifty-six.
On 22 January 2006, "Our God Reigns" debuted at number one on the UK Cross Rhythms radio chart. It stayed at the top for another week before dropping to numbers two and five, finally falling out of the top ten altogether.
On 16 April 2006, "Here I Am Send Me" debuted at number one on the UK Cross Rhythms radio chart. It remained at number one for four weeks before dropping to number two, then out of the charts completely.
Exact Audio Copy V0.99 prebeta 5 from 4. May 2009

EAC extraction logfile from 21. November 2009, 13:14

Delirious? / The Mission Bell

Used drive : HL-DT-STDVDRWBD CA10N Adapter: 1 ID: 0

Read mode : Burst

Read offset correction : 667
Overread into Lead-In and Lead-Out : No
Fill up missing offset samples with silence : Yes
Delete leading and trailing silent blocks : No
Null samples used in CRC calculations : No
Used interface : Native Win32 interface for Win NT & 2000
Gap handling : Appended to previous track

Used output format : User Defined Encoder
Selected bitrate : 128 kBit/s
Quality : High
Add ID3 tag : No
Command line compressor : C:\Program Files (x86)\FLAC\flac.exe
Additional command line options : -T "artist=%a" -T "title=%t" -T "album=%g" -T "date=%y" -T "tracknumber=%n" -T "genre=%m" -5 %s

TOC of the extracted CD

Track | Start | Length | Start sector | End sector
---------------------------------------------------------
1 | 0:00.00 | 4:51.72 | 0 | 21896
2 | 4:51.72 | 4:05.61 | 21897 | 40332
3 | 8:57.58 | 4:33.74 | 40333 | 60881
4 | 13:31.57 | 5:26.07 | 60882 | 85338
5 | 18:57.64 | 5:44.26 | 85339 | 111164
6 | 24:42.15 | 4:13.26 | 111165 | 130165
7 | 28:55.41 | 4:18.25 | 130166 | 149540
8 | 33:13.66 | 5:41.34 | 149541 | 175149
9 | 38:55.25 | 3:48.14 | 175150 | 192263
10 | 42:43.39 | 2:19.59 | 192264 | 202747
11 | 45:03.23 | 6:28.18 | 202748 | 231865
12 | 51:31.41 | 3:44.54 | 231866 | 248719
13 | 57:48.20 | 19:47.13 | 260120 | 349157

Track 1

Filename C:\Users\Ruben\Downloads\Delirious - The Mission Bell\Stronger.wav

Pre-gap length 0:00:02.00

Peak level 98.4 %
Test CRC CAB89F61
Copy CRC CAB89F61
Accurately ripped (confidence 8) [CC9E7327]
Copy OK

Track 2

Filename C:\Users\Ruben\Downloads\Delirious - The Mission Bell\Now Is The Time.wav

Pre-gap length 0:00:00.02

Peak level 98.7 %
Test CRC C0B7747A
Copy CRC C0B7747A
Accurately ripped (confidence 8) [CFA7849D]
Copy OK

Track 3

Filename C:\Users\Ruben\Downloads\Delirious - The Mission Bell\Solid Rock.wav

Pre-gap length 0:00:00.02

Peak level 98.4 %
Test CRC 051343D3
Copy CRC 051343D3
Accurately ripped (confidence 8) [6BBE5DDF]
Copy OK

Track 4

Filename C:\Users\Ruben\Downloads\Delirious - The Mission Bell\All This Time.wav

Pre-gap length 0:00:00.02

Peak level 98.6 %
Test CRC 1A26EEE5
Copy CRC 1A26EEE5
Accurately ripped (confidence 8) [37DDE7CE]
Copy OK

Track 5

Filename C:\Users\Ruben\Downloads\Delirious - The Mission Bell\Miracle Maker.wav

Pre-gap length 0:00:00.02

Peak level 98.7 %
Test CRC 3547DB08
Copy CRC 3547DB08
Accurately ripped (confidence 8) [D345A333]
Copy OK

Track 6

Filename C:\Users\Ruben\Downloads\Delirious - The Mission Bell\Here I Am Send Me.wav

Pre-gap length 0:00:00.02

Peak level 98.7 %
Test CRC 590F1D4C
Copy CRC 590F1D4C
Accurately ripped (confidence 8) [BD573F4F]
Copy OK

Track 7

Filename C:\Users\Ruben\Downloads\Delirious - The Mission Bell\Fires Burn.wav

Pre-gap length 0:00:00.02

Peak level 98.7 %
Test CRC 1097D5B4
Copy CRC 1097D5B4
Accurately ripped (confidence 8) [C710D276]
Copy OK

Track 8

Filename C:\Users\Ruben\Downloads\Delirious - The Mission Bell\Our God Reigns.wav

Pre-gap length 0:00:00.02

Peak level 98.8 %
Test CRC B19E11B1
Copy CRC B19E11B1
Accurately ripped (confidence 8) [131D41D8]
Copy OK

Track 9

Filename C:\Users\Ruben\Downloads\Delirious - The Mission Bell\Love Is A Miracle.wav

Pre-gap length 0:00:00.02

Peak level 98.5 %
Test CRC 35D22047
Copy CRC 35D22047
Accurately ripped (confidence 8) [8B1F238D]
Copy OK

Track 10

Filename C:\Users\Ruben\Downloads\Delirious - The Mission Bell\Paint The Town Red.wav

Pre-gap length 0:00:00.02

Peak level 98.6 %
Test CRC C4CC29EC
Copy CRC C4CC29EC
Accurately ripped (confidence 8) [147F6AC5]
Copy OK

Track 11

Filename C:\Users\Ruben\Downloads\Delirious - The Mission Bell\Take Off My Shoes.wav

Pre-gap length 0:00:00.02

Peak level 98.5 %
Test CRC E1817A1E
Copy CRC E1817A1E
Accurately ripped (confidence 8) [A07E71B3]
Copy OK

Track 12

Filename C:\Users\Ruben\Downloads\Delirious - The Mission Bell\I'll See You.wav

Pre-gap length 0:00:00.02

Peak level 98.0 %
Test CRC 2CDF8905
Copy CRC 2CDF8905
Accurately ripped (confidence 8) [F2AC0453]
Copy OK

All tracks accurately ripped

No errors occurred

End of status report

_________________
И все, что делаете, делайте от души, как для Господа, а не для человеков (Кол.3:23)
[Профиль]  [ЛС] 

darkGgune

Стаж: 4 года 5 месяцев

Сообщений: 1

post 17-Мар-2014 21:06 (спустя 3 года 8 месяцев)

[Цитировать]  [] 

thx
[Профиль]  [ЛС] 

gian__velez09

Стаж: 4 года

Сообщений: 4

Аргентина

post 03-Авг-2014 21:37 (спустя 4 месяца 17 дней)

[Цитировать]  [] 

thx
[Профиль]  [ЛС] 
Показать сообщения:    
Ответить на тему

Текущее время: 20-Авг 01:39

Часовой пояс: GMT + 4



Вы не можете начинать темы
Вы не можете отвечать на сообщения
Вы не можете редактировать свои сообщения
Вы не можете удалять свои сообщения
Вы не можете голосовать в опросах
Вы не можете прикреплять файлы к сообщениям
Вы не можете скачивать файлы
[  Execution time: 0.287 sec  |  MySQL: 11 queries |  GZIP ON  |  Mem: 597.55 KB / 4.04 MB / 3.48 MB  |  Load: 0.5 0.5 0.7  ]