Loading...
Error

Delirious? (Studio) - Glo (2000) FLAC

Статистика раздачи
Нет
 
     
 
 
Автор Сообщение

Blessing

Стаж: 9 лет 1 месяц

Сообщений: 2574

post 16-Июн-2010 21:56

[Цитировать]  [] 

Delirious? - Glo (2000)
Studio album by Delirious?

Released: 29 July 2000 (UK), October 10, 2000 (US)
Genre: Rock, Christian Rock
Label: Furious?
Producer: Tedd Tjornhom and Delirious?

Glo is the third full studio album by the band Delirious?. It was released in 2000, just over a year after their previous album Mezzamorphis. It was the best-selling Christian album for eight months

Треклист:

01. "God You Are My God" Stu Garrard 3:45
02. "GLO In The Dark - Part 1" Stu Garrard 2:45
03. "God's Romance" Martin Smith 6:58
04. "Investigate" Martin Smith, Stu Garrard 4:09
05. "GLO In The Dark - Part 2" Martin Smith, Stu Garrard 3:42
06. "What Would I Have Done?" Martin Smith 6:06
07. "My Glorious" Martin Smith, Stu Garrard 6:09
08. "Everything" Martin Smith, Stu Garrard 3:39
09. "Hang On To You" Martin Smith 4:20
10. "Intimate Stranger" Martin Smith 7:26
11. "Awaken The Dawn" Stu Garrard 4:14
12. "GLO In The Dark - Part 3" Stu Garrard 3:37
13. "The Years Go By" Martin Smith 3:50
14. "Jesus' Blood" Martin Smith 5:54
15. "GLO In The Dark - Part 4" Martin Smith 4:58

Формат / Качество: FLAC
Продолжительность: 01:11:35
---------------------------------------------------------------------
Delirious? - GLO
---------------------------------------------------------------------

Artist...............: Delirious?
Album................: GLO
Genre................: Rock
Source...............: CD
Year.................: 2000
Ripper...............: Exact Audio Copy 0.99b4 (Secure) & SONY DRU-840A
Codec................: Free Lossless Audio Codec (FLAC)
Version..............: reference libFLAC 1.2.1 20070917
Quality..............: Lossless, (avg. compression: 83 %)
Channels.............: Stereo / 44100 HZ / 16 Bit
Tags.................: VorbisComment
Information..........:

Ripped by............: Somebody on 4/1/2008
Posted by............: Somebody on 4/1/2008
News Server..........:
News Group(s)........:

Included.............: NFO

---------------------------------------------------------------------
Tracklisting
---------------------------------------------------------------------

1. (00:03:44) Delirious? - God You Are My God
2. (00:02:46) Delirious? - *GLO in the Dark (PT 01)
3. (00:06:59) Delirious? - God's Romance
4. (00:04:09) Delirious? - Investigate
5. (00:03:42) Delirious? - *GLO in the Dark (PT 02)
6. (00:06:07) Delirious? - What Would I Have Done?
7. (00:06:10) Delirious? - My Glorious
8. (00:03:42) Delirious? - Everything
9. (00:04:21) Delirious? - Hang on to You
10. (00:07:26) Delirious? - Intimate Stranger
11. (00:04:13) Delirious? - Awaken the Dawn
12. (00:03:38) Delirious? - *GLO in the Dark (PT 03)
13. (00:03:51) Delirious? - The Years Go By
14. (00:05:53) Delirious? - Jesus's Blood
15. (00:05:00) Delirious? - *GLO in the Dark (PT 04)

Playing Time.........: 04:47:54
Total Size...........: 467.48 MB
Exact Audio Copy V0.99 prebeta 4 from 23. January 2008

EAC extraction logfile from 1. April 2008, 19:55

Delirious? / GLO

Used drive : SONY DVD RW DRU-840A Adapter: 0 ID: 0

Read mode : Secure
Utilize accurate stream : Yes
Defeat audio cache : Yes
Make use of C2 pointers : Yes

Read offset correction : 6
Overread into Lead-In and Lead-Out : No
Fill up missing offset samples with silence : Yes
Delete leading and trailing silent blocks : No
Null samples used in CRC calculations : Yes
Used interface : Native Win32 interface for Win NT & 2000
Gap handling : Appended to previous track

Used output format : User Defined Encoder
Selected bitrate : 256 kBit/s
Quality : High
Add ID3 tag : No
Command line compressor : C:\Program Files\Exact Audio Copy\Flac\flac.exe
Additional command line options : -V -8 -T "artist=%a" -T "title=%t" -T "album=%g" -T "date=%y" -T "tracknumber=%n" -T "genre=%m" %s

TOC of the extracted CD

Track | Start | Length | Start sector | End sector
---------------------------------------------------------
1 | 0:00.00 | 3:44.10 | 0 | 16809
2 | 3:44.10 | 2:46.07 | 16810 | 29266
3 | 6:30.17 | 6:58.40 | 29267 | 60656
4 | 13:28.57 | 4:09.33 | 60657 | 79364
5 | 17:38.15 | 3:42.25 | 79365 | 96039
6 | 21:20.40 | 6:06.52 | 96040 | 123541
7 | 27:27.17 | 6:10.15 | 123542 | 151306
8 | 33:37.32 | 3:41.50 | 151307 | 167931
9 | 37:19.07 | 4:21.28 | 167932 | 187534
10 | 41:40.35 | 7:25.55 | 187535 | 220964
11 | 49:06.15 | 4:13.37 | 220965 | 239976
12 | 53:19.52 | 3:38.13 | 239977 | 256339
13 | 56:57.65 | 3:50.67 | 256340 | 273656
14 | 60:48.57 | 5:53.08 | 273657 | 300139
15 | 66:41.65 | 4:59.72 | 300140 | 322636

Track 1

Filename F:\Music\_Temp Album Space\Delirious\GLO\01 -God You Are My God.wav

Pre-gap length 0:00:02.00

Peak level 98.3 %
Track quality 100.0 %
Test CRC 3D1672BF
Copy CRC 3D1672BF
Accurately ripped (confidence 3) [210558AE]
Copy OK

Track 2

Filename F:\Music\_Temp Album Space\Delirious\GLO\02 -xGLO in the Dark (PT 01).wav

Peak level 98.2 %
Track quality 100.0 %
Test CRC 9BF2D2B1
Copy CRC 9BF2D2B1
Accurately ripped (confidence 2) [EF32A6A9]
Copy OK

Track 3

Filename F:\Music\_Temp Album Space\Delirious\GLO\03 -God's Romance.wav

Peak level 98.6 %
Track quality 100.0 %
Test CRC 9A50C082
Copy CRC 9A50C082
Accurately ripped (confidence 2) [184083DB]
Copy OK

Track 4

Filename F:\Music\_Temp Album Space\Delirious\GLO\04 -Investigate.wav

Pre-gap length 0:00:00.01

Peak level 98.8 %
Track quality 100.0 %
Test CRC FA643C43
Copy CRC FA643C43
Accurately ripped (confidence 2) [5032EDD4]
Copy OK

Track 5

Filename F:\Music\_Temp Album Space\Delirious\GLO\05 -xGLO in the Dark (PT 02).wav

Peak level 98.7 %
Track quality 100.0 %
Test CRC 03E2F12E
Copy CRC 03E2F12E
Accurately ripped (confidence 2) [9AA86243]
Copy OK

Track 6

Filename F:\Music\_Temp Album Space\Delirious\GLO\06 -What Would I Have Done .wav

Peak level 98.3 %
Track quality 100.0 %
Test CRC 84ED9042
Copy CRC 84ED9042
Accurately ripped (confidence 2) [B9E2CE8D]
Copy OK

Track 7

Filename F:\Music\_Temp Album Space\Delirious\GLO\07 -My Glorious.wav

Peak level 99.0 %
Track quality 100.0 %
Test CRC 46D9BBEB
Copy CRC 46D9BBEB
Accurately ripped (confidence 2) [7BA81E16]
Copy OK

Track 8

Filename F:\Music\_Temp Album Space\Delirious\GLO\08 -Everything.wav

Pre-gap length 0:00:00.01

Peak level 99.1 %
Track quality 100.0 %
Test CRC A4066B07
Copy CRC A4066B07
Accurately ripped (confidence 2) [74456A8A]
Copy OK

Track 9

Filename F:\Music\_Temp Album Space\Delirious\GLO\09 -Hang on to You.wav

Pre-gap length 0:00:02.16

Peak level 98.6 %
Track quality 99.9 %
Test CRC 8A800B16
Copy CRC 8A800B16
Accurately ripped (confidence 2) [42862FA5]
Copy OK

Track 10

Filename F:\Music\_Temp Album Space\Delirious\GLO\10 -Intimate Stranger.wav

Peak level 98.7 %
Track quality 100.0 %
Test CRC 774C8AEA
Copy CRC 774C8AEA
Accurately ripped (confidence 2) [C8E96D90]
Copy OK

Track 11

Filename F:\Music\_Temp Album Space\Delirious\GLO\11 -Awaken the Dawn.wav

Peak level 98.5 %
Track quality 100.0 %
Test CRC 51A70C53
Copy CRC 51A70C53
Accurately ripped (confidence 2) [EBB8F942]
Copy OK

Track 12

Filename F:\Music\_Temp Album Space\Delirious\GLO\12 -xGLO in the Dark (PT 03).wav

Peak level 98.0 %
Track quality 100.0 %
Test CRC BE79D911
Copy CRC BE79D911
Accurately ripped (confidence 2) [B4008CB9]
Copy OK

Track 13

Filename F:\Music\_Temp Album Space\Delirious\GLO\13 -The Years Go By.wav

Peak level 98.7 %
Track quality 100.0 %
Test CRC E853BEAB
Copy CRC E853BEAB
Accurately ripped (confidence 2) [570567A7]
Copy OK

Track 14

Filename F:\Music\_Temp Album Space\Delirious\GLO\14 -Jesus's Blood.wav

Peak level 98.7 %
Track quality 100.0 %
Test CRC B88BD8DA
Copy CRC B88BD8DA
Accurately ripped (confidence 2) [85C1D7B8]
Copy OK

Track 15

Filename F:\Music\_Temp Album Space\Delirious\GLO\15 -xGLO in the Dark (PT 04).wav

Pre-gap length 0:00:00.45

Peak level 98.0 %
Track quality 99.9 %
Test CRC 41B820D8
Copy CRC 41B820D8
Accurately ripped (confidence 2) [81EDDFD5]
Copy OK

All tracks accurately ripped

No errors occurred

End of status report

_________________
И все, что делаете, делайте от души, как для Господа, а не для человеков (Кол.3:23)
[Профиль]  [ЛС] 

f35suarezj

Стаж: 3 года 9 месяцев

Сообщений: 1

post 18-Сен-2014 04:00 (спустя 4 года 3 месяца)

[Цитировать]  [] 

GRACIAS
[Профиль]  [ЛС] 
Показать сообщения:    
Ответить на тему

Текущее время: 20-Июн 03:23

Часовой пояс: GMT + 4



Вы не можете начинать темы
Вы не можете отвечать на сообщения
Вы не можете редактировать свои сообщения
Вы не можете удалять свои сообщения
Вы не можете голосовать в опросах
Вы не можете прикреплять файлы к сообщениям
Вы не можете скачивать файлы
[  Execution time: 0.283 sec  |  MySQL: 14 queries |  GZIP ON  |  Mem: 597.25 KB / 4.01 MB / 3.47 MB  |  Load: 0.2 0.3 0.3  ]