Loading...
Error

Delirious? (Live) - My Soul Sings: Live From Bogota Colombia (2009) FLAC

Статистика раздачи
Нет
 
     
 
 
Автор Сообщение

Blessing

Стаж: 9 лет 3 месяца

Сообщений: 2574

post 16-Июн-2010 21:38

[Цитировать]  [] 

Delirious? (Live) - My Soul Sings: Live From Bogota Colombia (2009)
Live album by Delirious?

Released: 16 March 2009
Recorded: September 2008
Genre: Rock, Christian Rock
Label: Sparrow Records, Furious?
Producer: Delirious?

My Soul Sings is a live album by the band Delirious?. In September 2008, Delirious? attended the MCI Convention Centre in Bogota, Colombia to record a live concert album and DVD. 15,000 fans attended the event over two nights. The album was released on 16 March 2009. It will likely be the band's last new recording before their split at the end of 2009. It takes its name from the song 'My Soul Sings' which was included on the recent studio album, Kingdom Of Comfort. A special 'Colombian Edition' has also been released in South America to cater for the Colombian market, where Delirious? has a large following.

Треклист:
01. (00:04:49) Delirious? - Rain Down
02. (00:04:12) Delirious? - God Is Smiling
03. (00:05:13) Delirious? - God's Romance
04. (00:04:05) Delirious? - Hallelujah
05. (00:03:20) Delirious? - Bliss
06. (00:04:59) Delirious? - Love Will Find a Way
07. (00:06:22) Delirious? - All God's Children
08. (00:09:24) Delirious? - History Maker
09. (00:03:56) Iain Archer - Break the Silence
10. (00:03:43) Stu Garrard - Deeper
11. (00:08:03) Delirious? - Majesty
12. (00:03:29) Delirious? - Kingdom of Comfort
13. (00:04:26) Delirious? - Stare the Monster Down
14. (00:06:28) Delirious? - My Soul Sings

Формат / Качество: FLAC
Продолжительность: 01:12:29

DVD5: Здесь


Exact Audio Copy V0.99 prebeta 4 from 23. January 2008

EAC extraction logfile from 23. June 2009, 16:03

delirious? / My Soul Sings (Live From Bogota/Colombia)

Used drive : SONY DVD RW DRU-180A Adapter: 1 ID: 0

Read mode : Secure
Utilize accurate stream : Yes
Defeat audio cache : Yes
Make use of C2 pointers : No

Read offset correction : 6
Overread into Lead-In and Lead-Out : No
Fill up missing offset samples with silence : Yes
Delete leading and trailing silent blocks : No
Null samples used in CRC calculations : Yes
Used interface : Native Win32 interface for Win NT & 2000
Gap handling : Appended to previous track

Used output format : User Defined Encoder
Selected bitrate : 320 kBit/s
Quality : High
Add ID3 tag : No
Command line compressor : C:\Program Files\Exact Audio Copy\Flac\flac.exe
Additional command line options : -V -8 -T "artist=%a" -T "title=%t" -T "album=%g" -T "date=%y" -T "tracknumber=%n" -T "genre=%m" %s

TOC of the extracted CD

Track | Start | Length | Start sector | End sector
---------------------------------------------------------
1 | 0:00.00 | 4:49.03 | 0 | 21677
2 | 4:49.03 | 4:12.18 | 21678 | 40595
3 | 9:01.21 | 5:13.12 | 40596 | 64082
4 | 14:14.33 | 4:05.26 | 64083 | 82483
5 | 18:19.59 | 3:20.51 | 82484 | 97534
6 | 21:40.35 | 4:59.08 | 97535 | 119967
7 | 26:39.43 | 6:22.46 | 119968 | 148663
8 | 33:02.14 | 9:24.22 | 148664 | 190985
9 | 42:26.36 | 3:56.60 | 190986 | 208745
10 | 46:23.21 | 3:43.27 | 208746 | 225497
11 | 50:06.48 | 8:03.15 | 225498 | 261737
12 | 58:09.63 | 3:29.10 | 261738 | 277422
13 | 61:38.73 | 4:26.10 | 277423 | 297382
14 | 66:05.08 | 6:28.73 | 297383 | 326555

Track 1

Filename C:\Rips\delirious - 2009 - My Soul Sings (Live From Bogota,Colombia) [FLAC]\01 - Rain Down.wav

Pre-gap length 0:00:02.00

Peak level 97.7 %
Track quality 100.0 %
Test CRC 82AF8A93
Copy CRC 82AF8A93
Track not present in AccurateRip database
Copy OK

Track 2

Filename C:\Rips\delirious - 2009 - My Soul Sings (Live From Bogota,Colombia) [FLAC]\02 - God Is Smiling.wav

Peak level 97.7 %
Track quality 100.0 %
Test CRC CB7CE857
Copy CRC CB7CE857
Track not present in AccurateRip database
Copy OK

Track 3

Filename C:\Rips\delirious - 2009 - My Soul Sings (Live From Bogota,Colombia) [FLAC]\03 - Godґs Romance.wav

Pre-gap length 0:00:01.68

Peak level 97.7 %
Track quality 99.9 %
Test CRC C3AFC83F
Copy CRC C3AFC83F
Track not present in AccurateRip database
Copy OK

Track 4

Filename C:\Rips\delirious - 2009 - My Soul Sings (Live From Bogota,Colombia) [FLAC]\04 - Hallelujah.wav

Pre-gap length 0:00:01.52

Peak level 97.7 %
Track quality 100.0 %
Test CRC 91B99E3A
Copy CRC 91B99E3A
Track not present in AccurateRip database
Copy OK

Track 5

Filename C:\Rips\delirious - 2009 - My Soul Sings (Live From Bogota,Colombia) [FLAC]\05 - Bliss.wav

Peak level 97.7 %
Track quality 100.0 %
Test CRC D9C04BDC
Copy CRC D9C04BDC
Track not present in AccurateRip database
Copy OK

Track 6

Filename C:\Rips\delirious - 2009 - My Soul Sings (Live From Bogota,Colombia) [FLAC]\06 - Love Will Find A Way.wav

Pre-gap length 0:00:08.05

Peak level 97.7 %
Track quality 100.0 %
Test CRC 311E94B5
Copy CRC 311E94B5
Track not present in AccurateRip database
Copy OK

Track 7

Filename C:\Rips\delirious - 2009 - My Soul Sings (Live From Bogota,Colombia) [FLAC]\07 - All Godґs Children.wav

Peak level 97.7 %
Track quality 100.0 %
Test CRC 1926D344
Copy CRC 1926D344
Track not present in AccurateRip database
Copy OK

Track 8

Filename C:\Rips\delirious - 2009 - My Soul Sings (Live From Bogota,Colombia) [FLAC]\08 - History Maker.wav

Peak level 97.7 %
Track quality 100.0 %
Test CRC 1417C0C2
Copy CRC 1417C0C2
Track not present in AccurateRip database
Copy OK

Track 9

Filename C:\Rips\delirious - 2009 - My Soul Sings (Live From Bogota,Colombia) [FLAC]\09 - Break The Silence.wav

Peak level 97.7 %
Track quality 100.0 %
Test CRC 7285CC91
Copy CRC 7285CC91
Track not present in AccurateRip database
Copy OK

Track 10

Filename C:\Rips\delirious - 2009 - My Soul Sings (Live From Bogota,Colombia) [FLAC]\10 - Deeper.wav

Pre-gap length 0:00:02.10

Peak level 97.7 %
Track quality 100.0 %
Test CRC F28EF08F
Copy CRC F28EF08F
Track not present in AccurateRip database
Copy OK

Track 11

Filename C:\Rips\delirious - 2009 - My Soul Sings (Live From Bogota,Colombia) [FLAC]\11 - Majesty.wav

Peak level 97.7 %
Track quality 100.0 %
Test CRC F32612B1
Copy CRC F32612B1
Track not present in AccurateRip database
Copy OK

Track 12

Filename C:\Rips\delirious - 2009 - My Soul Sings (Live From Bogota,Colombia) [FLAC]\12 - Kingdom Of Comfort.wav

Peak level 97.7 %
Track quality 100.0 %
Test CRC 4E083095
Copy CRC 4E083095
Track not present in AccurateRip database
Copy OK

Track 13

Filename C:\Rips\delirious - 2009 - My Soul Sings (Live From Bogota,Colombia) [FLAC]\13 - Stare The Monster Down.wav

Pre-gap length 0:00:02.88

Peak level 97.7 %
Track quality 100.0 %
Test CRC 031EA332
Copy CRC 031EA332
Track not present in AccurateRip database
Copy OK

Track 14

Filename C:\Rips\delirious - 2009 - My Soul Sings (Live From Bogota,Colombia) [FLAC]\14 - My Soul Sings.wav

Peak level 97.7 %
Track quality 100.0 %
Test CRC CE6C7A0F
Copy CRC CE6C7A0F
Track not present in AccurateRip database
Copy OK

None of the tracks are present in the AccurateRip database

No errors occurred

End of status report

_________________
И все, что делаете, делайте от души, как для Господа, а не для человеков (Кол.3:23)
[Профиль]  [ЛС] 
Показать сообщения:    
Ответить на тему

Текущее время: 20-Авг 01:38

Часовой пояс: GMT + 4



Вы не можете начинать темы
Вы не можете отвечать на сообщения
Вы не можете редактировать свои сообщения
Вы не можете удалять свои сообщения
Вы не можете голосовать в опросах
Вы не можете прикреплять файлы к сообщениям
Вы не можете скачивать файлы
[  Execution time: 0.211 sec  |  MySQL: 11 queries |  GZIP ON  |  Mem: 597.55 KB / 4 MB / 3.45 MB  |  Load: 0.4 0.5 0.7  ]