Loading...
Error

Delirious? - Now Is The Time, Live At Willow Creek. Chicago. U.S.A (2006) FLAC

Статистика раздачи
Нет
 
     
 
 
Автор Сообщение

Blessing

Стаж: 9 лет 1 месяц

Сообщений: 2574

post 16-Июн-2010 11:15

[Цитировать]  [] 

Delirious? - Now Is The Time, Live At Willow Creek. Chicago. U.S.A (2006)

Released:
9 October 2006
October 17, 2006
Recorded: June 2006
Genre: Rock, Christian Rock
Label: Furious?
Producer: Delirious?

Now Is The Time is the fourth full live album by the band Delirious?. In June 2006, Delirious? attended Willow Creek Community Church to record a live concert DVD. The DVD is accompanied with a CD, and it was released in the UK on 9 October and in the USA on 17 October.

Треклист:
01. Here I Am Send Me (Martin Smith, Stu Garrard, Jon Thatcher, Stewart Smith, Tim Jupp)
02. Rain Down (Smith, Garrard)
03. Solid Rock (Smith, Garrard, Thatcher, Smith, Jupp)
04. Now Is The Time (Smith, Garrard, Thatcher, Smith, Jupp, Matt Redman)
05. Our God Reigns (Smith, Garrard, Thatcher, Smith, Jupp)
06. What A Friend I've Found (Smith)
07. Miracle Maker (Smith, Garrard, Thatcher, Smith, Jupp)
08. Paint The Town Red (Smith, Garrard, Thatcher, Smith, Jupp)
09. Every Little Thing (Smith, Garrard)
10. I Could Sing Of Your Love Forever (Smith)
11. Take Off My Shoes (Smith, Garrard, Thatcher, Smith, Jupp)
12. Majesty (Here I Am) (Garrard, Smith)
13. Our God Reigns - Reprise (Smith, Garrard, Thatcher, Smith, Jupp)
14. All This Time (Smith, Garrard, Thatcher, Smith, Jupp)
15. Our God Reigns - Radio Edit (Smith, Garrard, Thatcher, Smith, Jupp)

Формат / Качество: FLAC
Продолжительность: 01:17:42


Exact Audio Copy V0.99 prebeta 5 from 4. May 2009

EAC extraction logfile from 9. June 2010, 23:08

Delirious? / Now Is The Time // Live At Willow Creek

Used drive : HL-DT-STDVDRAM GT20F Adapter: 0 ID: 1

Read mode : Secure
Utilize accurate stream : Yes
Defeat audio cache : No
Make use of C2 pointers : Yes

Read offset correction : 667
Overread into Lead-In and Lead-Out : No
Fill up missing offset samples with silence : Yes
Delete leading and trailing silent blocks : No
Null samples used in CRC calculations : Yes
Used interface : Native Win32 interface for Win NT & 2000
Gap handling : Appended to previous track

Used output format : User Defined Encoder
Selected bitrate : 192 kBit/s
Quality : High
Add ID3 tag : No
Command line compressor : C:\Program Files (x86)\Exact Audio Copy\flac.exe
Additional command line options : -8 -A tukey(0.25) -A gauss(0.1875) -b 4096 -V -T "artist=%a" -T "title=%t" -T "album=%g" -T "date=%y" -T "tracknumber=%n" -T "genre=%m" %s

TOC of the extracted CD

Track | Start | Length | Start sector | End sector
---------------------------------------------------------
1 | 0:00.00 | 5:31.24 | 0 | 24848
2 | 5:31.24 | 5:25.65 | 24849 | 49288
3 | 10:57.14 | 4:27.29 | 49289 | 69342
4 | 15:24.43 | 7:31.55 | 69343 | 103222
5 | 22:56.23 | 7:07.24 | 103223 | 135271
6 | 30:03.47 | 1:47.27 | 135272 | 143323
7 | 31:50.74 | 7:30.11 | 143324 | 177084
8 | 39:21.10 | 4:11.23 | 177085 | 195932
9 | 43:32.33 | 5:20.22 | 195933 | 219954
10 | 48:52.55 | 1:07.40 | 219955 | 225019
11 | 50:00.20 | 6:45.23 | 225020 | 255417
12 | 56:45.43 | 5:40.69 | 255418 | 280986
13 | 62:26.37 | 5:19.18 | 280987 | 304929
14 | 67:45.55 | 5:36.52 | 304930 | 330181
15 | 73:22.32 | 4:26.50 | 330182 | 350181

Track 1

Filename C:\Ripped_Music\01 Here I Am Send Me.wav

Pre-gap length 0:00:02.00

Peak level 98.0 %
Track quality 100.0 %
Test CRC 5B66F7AB
Copy CRC 5B66F7AB
Accurately ripped (confidence 12) [A27CC0A9]
Copy OK

Track 2

Filename C:\Ripped_Music\02 Rain Down.wav

Pre-gap length 0:00:00.37

Peak level 98.0 %
Track quality 100.0 %
Test CRC DA35802B
Copy CRC DA35802B
Accurately ripped (confidence 12) [8990A483]
Copy OK

Track 3

Filename C:\Ripped_Music\03 Solid Rock.wav

Pre-gap length 0:00:00.37

Peak level 98.0 %
Track quality 100.0 %
Test CRC B9AAE1D0
Copy CRC B9AAE1D0
Accurately ripped (confidence 12) [66A131E0]
Copy OK

Track 4

Filename C:\Ripped_Music\04 Now Is The Time.wav

Pre-gap length 0:00:00.37

Peak level 98.0 %
Track quality 100.0 %
Test CRC 7F46389D
Copy CRC 7F46389D
Accurately ripped (confidence 12) [9D6FE964]
Copy OK

Track 5

Filename C:\Ripped_Music\05 Our God Reigns.wav

Pre-gap length 0:00:00.36

Peak level 98.0 %
Track quality 100.0 %
Test CRC A02FEA28
Copy CRC A02FEA28
Accurately ripped (confidence 12) [ECD58EBD]
Copy OK

Track 6

Filename C:\Ripped_Music\06 What A Friend.wav

Pre-gap length 0:00:00.37

Peak level 52.2 %
Track quality 100.0 %
Test CRC 70499296
Copy CRC 70499296
Accurately ripped (confidence 12) [2B440171]
Copy OK

Track 7

Filename C:\Ripped_Music\07 Miracle Maker.wav

Pre-gap length 0:00:00.25

Peak level 98.0 %
Track quality 100.0 %
Test CRC F6E063F2
Copy CRC F6E063F2
Accurately ripped (confidence 12) [44FD1346]
Copy OK

Track 8

Filename C:\Ripped_Music\08 Paint The Town Red.wav

Pre-gap length 0:00:00.37

Peak level 98.0 %
Track quality 100.0 %
Test CRC 53FE0E3F
Copy CRC 53FE0E3F
Accurately ripped (confidence 12) [134441B5]
Copy OK

Track 9

Filename C:\Ripped_Music\09 Every Little Thing.wav

Pre-gap length 0:00:00.37

Peak level 98.0 %
Track quality 100.0 %
Test CRC 2CC4E14D
Copy CRC 2CC4E14D
Accurately ripped (confidence 12) [11B75D84]
Copy OK

Track 10

Filename C:\Ripped_Music\10 I Could Sing Of Your Love Forever.wav

Pre-gap length 0:00:00.37

Peak level 66.6 %
Track quality 100.0 %
Test CRC E4CC255C
Copy CRC E4CC255C
Accurately ripped (confidence 12) [FD0062E9]
Copy OK

Track 11

Filename C:\Ripped_Music\11 Take Off My Shoes.wav

Pre-gap length 0:00:00.37

Peak level 98.0 %
Track quality 100.0 %
Test CRC B866512B
Copy CRC B866512B
Accurately ripped (confidence 12) [2D109BBC]
Copy OK

Track 12

Filename C:\Ripped_Music\12 Majesty.wav

Pre-gap length 0:00:00.37

Peak level 98.0 %
Track quality 100.0 %
Test CRC 81F90741
Copy CRC 81F90741
Accurately ripped (confidence 12) [6A02747E]
Copy OK

Track 13

Filename C:\Ripped_Music\13 Our God Reigns - Reprise.wav

Pre-gap length 0:00:00.37

Peak level 98.0 %
Track quality 100.0 %
Test CRC F20E6168
Copy CRC F20E6168
Accurately ripped (confidence 12) [20C90A76]
Copy OK

Track 14

Filename C:\Ripped_Music\14 All This Time.wav

Pre-gap length 0:00:00.37

Peak level 98.0 %
Track quality 100.0 %
Test CRC 2C72CBEA
Copy CRC 2C72CBEA
Accurately ripped (confidence 12) [AA4EEB8C]
Copy OK

Track 15

Filename C:\Ripped_Music\15 Our God Reigns - Radio Edit.wav

Pre-gap length 0:00:00.37

Peak level 98.0 %
Track quality 100.0 %
Test CRC 44312815
Copy CRC 44312815
Accurately ripped (confidence 12) [259EA731]
Copy OK

All tracks accurately ripped

No errors occurred

End of status report

_________________
И все, что делаете, делайте от души, как для Господа, а не для человеков (Кол.3:23)
[Профиль]  [ЛС] 
Показать сообщения:    
Ответить на тему

Текущее время: 20-Июн 03:30

Часовой пояс: GMT + 4



Вы не можете начинать темы
Вы не можете отвечать на сообщения
Вы не можете редактировать свои сообщения
Вы не можете удалять свои сообщения
Вы не можете голосовать в опросах
Вы не можете прикреплять файлы к сообщениям
Вы не можете скачивать файлы
[  Execution time: 0.185 sec  |  MySQL: 11 queries |  GZIP ON  |  Mem: 597.25 KB / 4.01 MB / 3.45 MB  |  Load: 0.8 0.5 0.3  ]