Loading...
Error

Delirious? (Studio) - King of Fools (US) (1998) FLAC

Статистика раздачи
Нет
 
     
 
 
Автор Сообщение

Blessing

Стаж: 9 лет 5 месяцев

Сообщений: 2574

post 16-Июн-2010 01:14

[Цитировать]  [] 

Delirious? - King of Fools (US) (1998)
Studio album by Delirious?

Released: UK - 16 June 1997
USA - 19 May 1998
Recorded: December 1996 - January 1997, Beltwood House (London, United Kingdom)
Genre: Rock, Christian Rock
Label: Furious? Records
Producer: Andy Piercy and Delirious?

Треклист:
01. "Sanctify"
02. "Deeper"
03. "Revival Town"
04. "All The Way"
05. "August 30th"
06. "Promise"
07. "King Or Cripple"
08. "Hands Of Kindness"
09(а) "Louder than the Radio"
09. "White Ribbon Day"
10. "King Of Fools"
11. "History Maker"
12. "What A Friend I've Found"

Формат/Качество: FLAC
Продолжительность: 01:03:59
Exact Audio Copy V0.99 prebeta 5 from 4. May 2009

EAC extraction logfile from 10. January 2010, 18:27

Delirious? / King of Fools

Used drive : _NEC DVD_RW ND-1300A Adapter: 0 ID: 0

Read mode : Secure
Utilize accurate stream : Yes
Defeat audio cache : Yes
Make use of C2 pointers : No

Read offset correction : 48
Overread into Lead-In and Lead-Out : No
Fill up missing offset samples with silence : Yes
Delete leading and trailing silent blocks : No
Null samples used in CRC calculations : Yes
Used interface : Installed external ASPI interface
Gap handling : Appended to previous track

Used output format : User Defined Encoder
Selected bitrate : 768 kBit/s
Quality : High
Add ID3 tag : No
Command line compressor : G:\Program Files\Exact Audio Copy\FLAC\FLAC.EXE
Additional command line options : -V -5 -T "artist=%a" -T "title=%t" -T "album=%g" -T "date=%y" -T "tracknumber=%n" -T "genre=%m" %s

TOC of the extracted CD

Track | Start | Length | Start sector | End sector
---------------------------------------------------------
1 | 0:00.00 | 4:13.27 | 0 | 19001
2 | 4:13.27 | 4:18.50 | 19002 | 38401
3 | 8:32.02 | 4:56.68 | 38402 | 60669
4 | 13:28.70 | 4:14.55 | 60670 | 79774
5 | 17:43.50 | 6:19.67 | 79775 | 108266
6 | 24:03.42 | 4:14.23 | 108267 | 127339
7 | 28:17.65 | 4:37.42 | 127340 | 148156
8 | 32:55.32 | 4:45.20 | 148157 | 169551
9 | 37:40.52 | 3:24.13 | 169552 | 184864
10 | 41:04.65 | 6:46.30 | 184865 | 215344
11 | 47:51.20 | 4:00.30 | 215345 | 233374
12 | 51:51.50 | 6:42.55 | 233375 | 263579
13 | 58:34.30 | 5:26.40 | 263580 | 288069

Track 1

Filename C:\Delirious - 1998 - King of Fools\01 - Sanctify.wav

Pre-gap length 0:00:02.00

Peak level 98.5 %
Track quality 99.9 %
Test CRC 94C83E93
Copy CRC 94C83E93
Accurately ripped (confidence 2) [06731E65]
Copy OK

Track 2

Filename C:\Delirious - 1998 - King of Fools\02 - Deeper.wav

Peak level 98.8 %
Track quality 99.9 %
Test CRC B952CA84
Copy CRC B952CA84
Accurately ripped (confidence 2) [FBEA3A2F]
Copy OK

Track 3

Filename C:\Delirious - 1998 - King of Fools\03 - Revival Town.wav

Peak level 98.6 %
Track quality 100.0 %
Test CRC 892B8A66
Copy CRC 892B8A66
Accurately ripped (confidence 2) [155134EF]
Copy OK

Track 4

Filename C:\Delirious - 1998 - King of Fools\04 - All The Way.wav

Pre-gap length 0:00:01.20

Peak level 98.3 %
Track quality 100.0 %
Test CRC 5EC6F314
Copy CRC 5EC6F314
Accurately ripped (confidence 2) [3D6E574E]
Copy OK

Track 5

Filename C:\Delirious - 1998 - King of Fools\05 - August 30th.wav

Peak level 98.6 %
Track quality 99.9 %
Test CRC 84C82AEF
Copy CRC 84C82AEF
Accurately ripped (confidence 2) [5DC4872F]
Copy OK

Track 6

Filename C:\Delirious - 1998 - King of Fools\06 - Promise.wav

Peak level 98.8 %
Track quality 100.0 %
Test CRC F4F73BC5
Copy CRC F4F73BC5
Accurately ripped (confidence 2) [4EC4C630]
Copy OK

Track 7

Filename C:\Delirious - 1998 - King of Fools\07 - King or Cripple.wav

Peak level 98.3 %
Track quality 100.0 %
Test CRC EAC31019
Copy CRC EAC31019
Accurately ripped (confidence 2) [9681D703]
Copy OK

Track 8

Filename C:\Delirious - 1998 - King of Fools\08 - Hands of Kindness.wav

Peak level 98.8 %
Track quality 99.9 %
Test CRC B0775025
Copy CRC B0775025
Accurately ripped (confidence 2) [2638C728]
Copy OK

Track 9

Filename C:\Delirious - 1998 - King of Fools\09 - Louder than the Radio.wav

Peak level 99.3 %
Track quality 100.0 %
Test CRC 5C77B820
Copy CRC 5C77B820
Accurately ripped (confidence 2) [334A6CA8]
Copy OK

Track 10

Filename C:\Delirious - 1998 - King of Fools\10 - White Ribbon Day.wav

Peak level 98.6 %
Track quality 100.0 %
Test CRC 2251CBE8
Copy CRC 2251CBE8
Accurately ripped (confidence 2) [4A56801B]
Copy OK

Track 11

Filename C:\Delirious - 1998 - King of Fools\11 - King of Fools.wav

Peak level 98.2 %
Track quality 99.9 %
Test CRC A9C80AA2
Copy CRC A9C80AA2
Accurately ripped (confidence 2) [E66163E3]
Copy OK

Track 12

Filename C:\Delirious - 1998 - King of Fools\12 - HIstory Maker.wav

Peak level 98.9 %
Track quality 100.0 %
Test CRC BCF6825E
Copy CRC BCF6825E
Track not present in AccurateRip database
Copy OK

Track 13

Filename C:\Delirious - 1998 - King of Fools\13 - What A Friend I've Found.wav

Pre-gap length 0:00:04.44

Peak level 98.4 %
Track quality 100.0 %
Test CRC 23BD45EB
Copy CRC 23BD45EB
Accurately ripped (confidence 2) [F71300F7]
Copy OK

12 track(s) accurately ripped
1 track(s) not present in the AccurateRip database

Some tracks could not be verified as accurate

No errors occurred

End of status report

_________________
И все, что делаете, делайте от души, как для Господа, а не для человеков (Кол.3:23)
[Профиль]  [ЛС] 

jakinense

Стаж: 4 года 3 месяца

Сообщений: 1

post 02-Июл-2014 17:04 (спустя 4 года)

[Цитировать]  [] 

thanks
[Профиль]  [ЛС] 

marmitevide

Стаж: 6 лет 11 месяцев

Сообщений: 1

Ливан

post 16-Янв-2015 03:27 (спустя 6 месяцев)

[Цитировать]  [] 

we want this torrent back please
[Профиль]  [ЛС] 
Показать сообщения:    
Ответить на тему

Текущее время: 21-Окт 19:31

Часовой пояс: GMT + 4



Вы не можете начинать темы
Вы не можете отвечать на сообщения
Вы не можете редактировать свои сообщения
Вы не можете удалять свои сообщения
Вы не можете голосовать в опросах
Вы не можете прикреплять файлы к сообщениям
Вы не можете скачивать файлы
[  Execution time: 0.313 sec  |  MySQL: 11 queries |  GZIP ON  |  Mem: 597.53 KB / 4.04 MB / 3.48 MB  |  Load: 1 1.1 0.8  ]