Loading...
Error

Delirious? (Studio) - World Service (2003) FLAC

Статистика раздачи
Нет
 
     
 
 
Автор Сообщение

Blessing

Стаж: 9 лет 5 месяцев

Сообщений: 2574

post 16-Июн-2010 00:40

[Цитировать]  [] 

Delirious? - World Service (2003)
Studio album by Delirious?

Released: 15 December 2003 (UK), February 10, 2004 (U.S.)
Genre: Rock, Christian Rock
Label: Furious?
Producer: Julian Kindred and Delirious?

World Service is the fifth studio album by English Christian rock band Delirious?. It was released in 2003. Although it is more of a worship-oriented album as was Glo, Delirious? released two singles to the German market: "Inside Outside" and "Every Little Thing". The former sold over twelve thousand copies, was number one in German radio station SWR3's chart, and spent seven weeks in the German singles charts peaking at number seventy-two. Delirious? also released two free MP3 downloads on mp3.com, both topping the Guitar Rock charts (the first for a full month). The first MP3, "Majesty (Here I Am)", hit number fifteen on the worldwide charts; the second, "Rain Down", reached number twenty-eight. The two together had amassed over 500,000 listens/downloads after fifty days. The band's American single "Rain Down" has become its biggest multi-format hit since "Deeper."

Треклист:
01 "Grace Like A River" (Stuart Garrard, Martin Smith) – 4:06
02 "Rain Down" (Smith, Garrard) – 4:51
03 "God In Heaven" (Smith, Garrard) – 4:28
04 "Majesty (Here I Am)" (Garrard, Smith) – 5:31
05 "Inside Outside" (Smith, Garrard) – 5:41
06 "Free" (Smith, Garrard, Jonathan Thatcher) – 3:59
07 "Everyone Knows"(Garrard, Smith) – 4:30
08 "With You" (Smith, Garrard) – 4:36
09 "Mountains High"(Smith) – 3:55
10 "I Was Blind" (Smith, Garrard) – 5:52
11 "Feel It Coming On" (Smith, Garrard) – 5:10
12 "Every Little Thing" (Smith, Garrard) – 4:34

Формат / Качество: FLAC
Продолжительность: 00:57:20
---------------------------------------------------------------------
Delirious - World Service
---------------------------------------------------------------------

Artist...............: Delirious
Album................: World Service
Genre................: Christian Rock
Source...............: CD
Year.................: 2003
Ripper...............: Exact Audio Copy (Secure mode) & PIONEER DVD-ROM DVD-120S
Codec................: Free Lossless Audio Codec (FLAC)
Version..............: reference libFLAC 1.1.3 20061120
Quality..............: Lossless, (avg. compression: 72 %)
Channels.............: Stereo / 44100 HZ / 16 Bit
Tags.................: VorbisComment
Information..........:

Ripped by............: on 2/5/2008
Posted by............: on 2/20/2008
News Server..........:
News Group(s)........:

Included.............: NFO, SFV, M3U, LOG, CUE

---------------------------------------------------------------------
Tracklisting
---------------------------------------------------------------------

1. (00:04:06) Delirious - Grace Like A River
2. (00:04:51) Delirious - Rain Down
3. (00:04:29) Delirious - God In Heaven
4. (00:05:32) Delirious - Majesty (Here I Am)
5. (00:05:41) Delirious - Inside Outside
6. (00:04:00) Delirious - Free
7. (00:04:30) Delirious - Everyone Knows
8. (00:04:36) Delirious - With You
9. (00:03:55) Delirious - Mountains High
10. (00:05:52) Delirious - I Was Blind
11. (00:05:10) Delirious - Feel It Coming On
12. (00:04:37) Delirious - Every Little Thing

Playing Time.........: 03:14:15
Total Size...........: 402.06 MB

NFO generated on.....: 2/20/2008 9:42:10 AM
Exact Audio Copy V0.99 prebeta 3 from 28. July 2007

EAC extraction logfile from 5. February 2008, 12:10

Delirious / World Service

Used drive : TEAC CD-W224E Adapter: 1 ID: 0

Read mode : Secure
Utilize accurate stream : Yes
Defeat audio cache : Yes
Make use of C2 pointers : No

Read offset correction : 685
Overread into Lead-In and Lead-Out : No
Fill up missing offset samples with silence : Yes
Delete leading and trailing silent blocks : No
Null samples used in CRC calculations : Yes
Used interface : Installed external ASPI interface
Gap handling : Appended to previous track

Used output format : User Defined Encoder
Selected bitrate : 320 kBit/s
Quality : High
Add ID3 tag : No
Command line compressor : C:\Program Files\Exact Audio Copy\flac.exe
Additional command line options : -8 -A tukey(0.25) -A gauss(0.1875) -b 4096 -V -T "artist=%a" -T "title=%t" -T "album=%g" -T "date=%y" -T "tracknumber=%n" -T "genre=%m" %s --sector-align

TOC of the extracted CD

Track | Start | Length | Start sector | End sector
---------------------------------------------------------
1 | 0:00.00 | 4:06.37 | 0 | 18486
2 | 4:06.37 | 4:51.18 | 18487 | 40329
3 | 8:57.55 | 4:28.42 | 40330 | 60471
4 | 13:26.22 | 5:31.45 | 60472 | 85341
5 | 18:57.67 | 5:41.28 | 85342 | 110944
6 | 24:39.20 | 3:59.70 | 110945 | 128939
7 | 28:39.15 | 4:30.25 | 128940 | 149214
8 | 33:09.40 | 4:36.05 | 149215 | 169919
9 | 37:45.45 | 3:55.05 | 169920 | 187549
10 | 41:40.50 | 5:52.15 | 187550 | 213964
11 | 47:32.65 | 5:10.12 | 213965 | 237226
12 | 52:43.02 | 4:36.40 | 237227 | 257966

Track 1

Filename C:\Documents and Settings\Christy\My Documents\Flac\Delirious - World Service\01 - Delirious - Grace Like A River.wav

Pre-gap length 0:00:02.00

Peak level 98.7 %
Track quality 100.0 %
Test CRC 8C3A5E4B
Copy CRC 8C3A5E4B
Accurately ripped (confidence 5) [37836DFC]
Copy OK

Track 2

Filename C:\Documents and Settings\Christy\My Documents\Flac\Delirious - World Service\02 - Delirious - Rain Down.wav

Peak level 98.7 %
Track quality 99.9 %
Test CRC 7A71965B
Copy CRC 7A71965B
Accurately ripped (confidence 5) [2DED0155]
Copy OK

Track 3

Filename C:\Documents and Settings\Christy\My Documents\Flac\Delirious - World Service\03 - Delirious - God In Heaven.wav

Peak level 98.7 %
Track quality 100.0 %
Test CRC F8C478E6
Copy CRC F8C478E6
Accurately ripped (confidence 5) [528184B5]
Copy OK

Track 4

Filename C:\Documents and Settings\Christy\My Documents\Flac\Delirious - World Service\04 - Delirious - Majesty (Here I Am).wav

Peak level 98.5 %
Track quality 100.0 %
Test CRC 19A8D508
Copy CRC 19A8D508
Accurately ripped (confidence 5) [C66FEF70]
Copy OK

Track 5

Filename C:\Documents and Settings\Christy\My Documents\Flac\Delirious - World Service\05 - Delirious - Inside Outside.wav

Peak level 98.6 %
Track quality 99.9 %
Test CRC DFB739D2
Copy CRC DFB739D2
Accurately ripped (confidence 5) [D8F79C09]
Copy OK

Track 6

Filename C:\Documents and Settings\Christy\My Documents\Flac\Delirious - World Service\06 - Delirious - Free.wav

Peak level 98.5 %
Track quality 100.0 %
Test CRC F7D48F31
Copy CRC F7D48F31
Accurately ripped (confidence 5) [B49A507E]
Copy OK

Track 7

Filename C:\Documents and Settings\Christy\My Documents\Flac\Delirious - World Service\07 - Delirious - Everyone Knows.wav

Peak level 98.6 %
Track quality 100.0 %
Test CRC BAF9D240
Copy CRC BAF9D240
Accurately ripped (confidence 5) [372C52F3]
Copy OK

Track 8

Filename C:\Documents and Settings\Christy\My Documents\Flac\Delirious - World Service\08 - Delirious - With You.wav

Peak level 98.8 %
Track quality 100.0 %
Test CRC 34AD1D6B
Copy CRC 34AD1D6B
Accurately ripped (confidence 5) [D54DF420]
Copy OK

Track 9

Filename C:\Documents and Settings\Christy\My Documents\Flac\Delirious - World Service\09 - Delirious - Mountains High.wav

Peak level 98.6 %
Track quality 100.0 %
Test CRC A5D6D3E4
Copy CRC A5D6D3E4
Accurately ripped (confidence 5) [ACC8FCE2]
Copy OK

Track 10

Filename C:\Documents and Settings\Christy\My Documents\Flac\Delirious - World Service\10 - Delirious - I Was Blind.wav

Peak level 98.6 %
Track quality 100.0 %
Test CRC C25D7C3F
Copy CRC C25D7C3F
Accurately ripped (confidence 5) [B1302CBE]
Copy OK

Track 11

Filename C:\Documents and Settings\Christy\My Documents\Flac\Delirious - World Service\11 - Delirious - Feel It Coming On.wav

Peak level 98.6 %
Track quality 99.9 %
Test CRC E5FA9F60
Copy CRC E5FA9F60
Accurately ripped (confidence 5) [E768A691]
Copy OK

Track 12

Filename C:\Documents and Settings\Christy\My Documents\Flac\Delirious - World Service\12 - Delirious - Every Little Thing.wav

Peak level 98.6 %
Track quality 100.0 %
Test CRC 41E986A8
Copy CRC 41E986A8
Accurately ripped (confidence 5) [011A99BC]
Copy OK

All tracks accurately ripped

No errors occurred

End of status report

_________________
И все, что делаете, делайте от души, как для Господа, а не для человеков (Кол.3:23)
[Профиль]  [ЛС] 

Steven Anthony

Стаж: 5 лет 8 месяцев

Сообщений: 2

Перу

post 21-Фев-2013 23:22 (спустя 2 года 8 месяцев)

[Цитировать]  [] 

please sedds!!! :(

_________________
Steven8947
[Профиль]  [ЛС] 

Steven Anthony

Стаж: 5 лет 8 месяцев

Сообщений: 2

Перу

post 06-Окт-2013 02:14 (спустя 7 месяцев)

[Цитировать]  [] 

por favor pongan semillas!!!!!!!!!!

_________________
Steven8947
[Профиль]  [ЛС] 

Blessing

Стаж: 9 лет 5 месяцев

Сообщений: 2574

post 06-Окт-2013 13:50 (спустя 11 часов)

[Цитировать]  [] 

Steven Anthony
You may go to iTunes o Amazon and will pay this album there....

_________________
И все, что делаете, делайте от души, как для Господа, а не для человеков (Кол.3:23)
[Профиль]  [ЛС] 
Показать сообщения:    
Ответить на тему

Текущее время: 21-Окт 18:53

Часовой пояс: GMT + 4



Вы не можете начинать темы
Вы не можете отвечать на сообщения
Вы не можете редактировать свои сообщения
Вы не можете удалять свои сообщения
Вы не можете голосовать в опросах
Вы не можете прикреплять файлы к сообщениям
Вы не можете скачивать файлы
[  Execution time: 0.200 sec  |  MySQL: 12 queries |  GZIP ON  |  Mem: 597.53 KB / 4.05 MB / 3.5 MB  |  Load: 0.3 0.3 0.3  ]