Loading...
Error

Jesus Culture - Конференция Awakening (День второй) (2011) HDTVRip

Статистика раздачи
Нет
 
     
 
 
Автор Сообщение

Blessing

Стаж: 8 лет 11 месяцев

Сообщений: 2574

post 17-Окт-2011 01:11

[Цитировать]  [] 

Jesus Culture - Awakening (День второй) (2011)

Дата: 04 августа 2011 г.
Выпущено: США
Жанр: Worship, Prophetic, Preaching
Участники: Jesus Culture Band, Hillsong United, Reinhard Bonnke, Kim Walker, Banning Liebscher, Jake Hamilton, Lou Engle, Sean Smith, Cindy Jacobs, The Torwalts & Kristene DiMarco

Перевод: Оригинал (английский)

Описание: Конференция в Чикаго (3-5 августа 2011 г.)

Содержание:

9:30AM
WORSHIP: HILLSONG UNITED - 01:14:48
MESSAGE: LOU ENGLE - 01:27:30

2:00PM
WORSHIP: JAKE HAMILTON - 00:57:30
MESSAGE: SEAN SMITH - 02:00:06

7:00PM
WORSHIP: JESUS CULTURE BAND - 01:04:52
MESSAGE: REINHARD BONNKE - 02:25:56

Формат: MP4
Качество: HDTVRip
Видео: MPEG4 Video (H264) NTSC 1280x720 (16:9) 29.97fps, 1450 Kbps
Аудио: AAC 48000Hz stereo 128Kbps (VBR)
General
Complete name : I:\Muzical_DVD\JESUS_CULTURE\Jesus Culture - Awakening 2011 Day 2 HD\1500-JC-Awakening-3_0001.mp4
Format : MPEG-4
Format profile : Base Media / Version 2
Codec ID : mp42
File size : 845 MiB
Duration : 1h 14mn
Overall bit rate : 1 579 Kbps
Encoded date : UTC 2011-08-04 14:29:36
Tagged date : UTC 2011-08-04 14:29:36

Video
ID : 1
Format : AVC
Format/Info : Advanced Video Codec
Format profile : Main@L3.1
Format settings, CABAC : Yes
Format settings, ReFrames : 2 frames
Codec ID : avc1
Codec ID/Info : Advanced Video Coding
Duration : 1h 14mn
Bit rate mode : Constant
Bit rate : 1 450 Kbps
Width : 1 280 pixels
Height : 720 pixels
Display aspect ratio : 16:9
Frame rate mode : Constant
Frame rate : 29.970 fps
Standard : NTSC
Color space : YUV
Chroma subsampling : 4:2:0
Bit depth : 8 bits
Scan type : Progressive
Bits/(Pixel*Frame) : 0.052
Stream size : 775 MiB (92%)
Language : English
Encoded date : UTC 2011-08-04 14:29:36
Tagged date : UTC 2011-08-04 14:29:36

Audio
ID : 2
Format : AAC
Format/Info : Advanced Audio Codec
Format version : Version 4
Format profile : LC
Codec ID : 40
Duration : 1h 14mn
Bit rate mode : Variable
Bit rate : 128 Kbps
Maximum bit rate : 159 Kbps
Channel(s) : 2 channels
Channel positions : Front: L R
Sampling rate : 48.0 KHz
Compression mode : Lossy
Stream size : 68.5 MiB (8%)
Language : English
Encoded date : UTC 2011-08-04 14:29:36
Tagged date : UTC 2011-08-04 14:29:36

_________________
И все, что делаете, делайте от души, как для Господа, а не для человеков (Кол.3:23)
[Профиль]  [ЛС] 
Показать сообщения:    
Ответить на тему

Текущее время: 26-Апр 15:01

Часовой пояс: GMT + 4



Вы не можете начинать темы
Вы не можете отвечать на сообщения
Вы не можете редактировать свои сообщения
Вы не можете удалять свои сообщения
Вы не можете голосовать в опросах
Вы не можете прикреплять файлы к сообщениям
Вы не можете скачивать файлы
[  Execution time: 0.319 sec  |  MySQL: 11 queries |  GZIP ON  |  Mem: 597.59 KB / 4 MB / 3.44 MB  |  Load: 1.1 0.7 0.6  ]