Loading...
Error

Jesus Culture - Конференция Awakening (День первый) (2011) HDTVRip

Статистика раздачи
Нет
 
     
 
 
Автор Сообщение

Blessing

Стаж: 9 лет 2 месяца

Сообщений: 2574

post 16-Окт-2011 13:36

[Цитировать]  [] 

Jesus Culture - Awakening (День первый) (2011)

Дата: 03 августа 2011 г.
Выпущено: США
Жанр: Worship, Prophetic, Preaching
Участники: Jesus Culture Band, Hillsong United, Reinhard Bonnke, Kim Walker, Banning Liebscher, Jake Hamilton, Lou Engle, Sean Smith, Cindy Jacobs, The Torwalts & Kristene DiMarco

Продолжительность: 01:13:16+00:57:29+01:24:50+01:46:11
Перевод: Оригинал (английский)

Описание: Конференция в Чикаго (3-5 августа 2011 г.)

Содержание:
Message: Banning Liebscher, Kim Walker-Smith - 01:13:16
Worship: Jesus Culture Band - 00:57:29
Worship: Hillsong United - 01:24:50
Message: Banning Liebscher - 01:46:11

Формат: MP4
Качество: HDTVRip
Видео: MPEG4 Video (H264) NTSC 1280x720 29.97fps, 1450 Kbps
Аудио: AAC 48000Hz stereo 128Kbps (VBR)
General
Complete name : I:\Muzical_DVD\JESUS_CULTURE\Jesus Culture - Awakening 2011 Day 1 HD\1500-JC-Awakening-1_0001.mp4
Format : MPEG-4
Format profile : Base Media / Version 2
Codec ID : mp42
File size : 827 MiB
Duration : 1h 13mn
Overall bit rate : 1 579 Kbps
Encoded date : UTC 2011-08-03 19:00:14
Tagged date : UTC 2011-08-03 19:00:14

Video
ID : 1
Format : AVC
Format/Info : Advanced Video Codec
Format profile : Main@L3.1
Format settings, CABAC : Yes
Format settings, ReFrames : 2 frames
Codec ID : avc1
Codec ID/Info : Advanced Video Coding
Duration : 1h 13mn
Bit rate mode : Constant
Bit rate : 1 450 Kbps
Width : 1 280 pixels
Height : 720 pixels
Display aspect ratio : 16:9
Frame rate mode : Constant
Frame rate : 29.970 fps
Standard : NTSC
Color space : YUV
Chroma subsampling : 4:2:0
Bit depth : 8 bits
Scan type : Progressive
Bits/(Pixel*Frame) : 0.052
Stream size : 759 MiB (92%)
Language : English
Encoded date : UTC 2011-08-03 19:00:14
Tagged date : UTC 2011-08-03 19:00:14

Audio
ID : 2
Format : AAC
Format/Info : Advanced Audio Codec
Format version : Version 4
Format profile : LC
Codec ID : 40
Duration : 1h 13mn
Bit rate mode : Variable
Bit rate : 128 Kbps
Maximum bit rate : 172 Kbps
Channel(s) : 2 channels
Channel positions : Front: L R
Sampling rate : 48.0 KHz
Compression mode : Lossy
Stream size : 67.1 MiB (8%)
Language : English
Encoded date : UTC 2011-08-03 19:00:14
Tagged date : UTC 2011-08-03 19:00:14

_________________
И все, что делаете, делайте от души, как для Господа, а не для человеков (Кол.3:23)
[Профиль]  [ЛС] 

maxdom

Стаж: 9 лет 2 месяца

Сообщений: 3

Откуда: Россия Кумертау

Россия

post 16-Окт-2011 20:30 (спустя 6 часов)

[Цитировать]  [] 

Спасибо большое
[Профиль]  [ЛС] 

Blessing

Стаж: 9 лет 2 месяца

Сообщений: 2574

post 16-Окт-2011 20:37 (спустя 7 минут)

[Цитировать]  [] 

maxdom писал(а):

Спасибо большое
Будут еще два дня конференции

_________________
И все, что делаете, делайте от души, как для Господа, а не для человеков (Кол.3:23)
[Профиль]  [ЛС] 

Maxim_Ex

Стаж: 8 лет 2 месяца

Сообщений: 14

Россия

post 16-Окт-2011 22:04 (спустя 1 час 26 минут)

[Цитировать]  [] 

Спасибо!! Ждем!
[Профиль]  [ЛС] 

Nbibyf

Стаж: 8 лет 6 месяцев

Сообщений: 18

post 17-Окт-2011 22:58 (спустя 1 день)

[Цитировать]  [] 

хорошая тема, но жаль, что на англицком... в смысле нету перевода...
[Профиль]  [ЛС] 

Blessing

Стаж: 9 лет 2 месяца

Сообщений: 2574

post 18-Окт-2011 19:46 (спустя 20 часов)

[Цитировать]  [] 

maxdom Maxim_Ex

Спасибо в карман не положишь. Спасибо на трекере - это поддержка раздачи. Жив Господь, не будет вам 3 части, пока не начнете сидировать.

_________________
И все, что делаете, делайте от души, как для Господа, а не для человеков (Кол.3:23)
[Профиль]  [ЛС] 

Aleksey

Стаж: 9 лет

Сообщений: 1205

Откуда: отсюда :)

post 18-Окт-2011 20:38 (спустя 52 минуты)

[Цитировать]  [] 

Blessing писал(а):

Спасибо на трекере - это поддержка раздачи. Жив Господь, не будет вам 3 части, пока не начнете сидировать.
100%-ный Аминь! ay

_________________
"И напрасно я стану уверять, что сегодняшнее насилие создаст свободу завтра, — я внедряю только насилие. С жизнью не слукавишь. Не обманешь дерево, оно потянется туда, куда его направят. Прочее — ветер слов. И если мне кажется, что я жертвую вот этим поколением во имя счастья последующих, я просто-напросто жертвую людьми. Не этими и не теми, а всеми разом. Всех людей я обрекаю на злосчастье. Прочее — ветер слов. И если я воюю во имя мира, я укрепляю войну. С помощью войны не установить мира."
Антуан де Сент-Экзюпери. Цитадель
[Профиль]  [ЛС] 

Blessing

Стаж: 9 лет 2 месяца

Сообщений: 2574

post 18-Окт-2011 21:01 (спустя 23 минуты)

[Цитировать]  [] 

ау!!!! где скачавшие? Я раздал почти 17 гб, и никто из скачавших не поддерживает!

_________________
И все, что делаете, делайте от души, как для Господа, а не для человеков (Кол.3:23)
[Профиль]  [ЛС] 
Показать сообщения:    
Ответить на тему

Текущее время: 23-Июл 19:17

Часовой пояс: GMT + 4



Вы не можете начинать темы
Вы не можете отвечать на сообщения
Вы не можете редактировать свои сообщения
Вы не можете удалять свои сообщения
Вы не можете голосовать в опросах
Вы не можете прикреплять файлы к сообщениям
Вы не можете скачивать файлы
[  Execution time: 0.318 sec  |  MySQL: 11 queries |  GZIP ON  |  Mem: 597.59 KB / 3.99 MB / 3.52 MB  |  Load: 0.5 0.5 0.5  ]