Loading...
Error

Jesus Culture - Your Love Never Fails (2008) FLAC

Статистика раздачи
Нет
 
     
 
 
Автор Сообщение

Blessing

Стаж: 8 лет 11 месяцев

Сообщений: 2574

post 22-Июн-2010 15:34

[Цитировать]  [] 

Jesus Culture - Your Love Never Fails

Название: Jesus Culture - Your Love Never Fails
Альбом: Your Love Never Fails
Исполнители: Kim Walker-Smith, Chris Quilala, Melissa How
Год выпуска: 2008
Жанр: Prophetic Worship
Язык: English

Описание: Прославление Jesus Culture. Альбом записан в Феврале 2008 года на инкаунтер конференции. Великолепное помазанное прославление с участием лидеров поклонения церкви Bethel.California - Chris Quilala, Kim Walker и Melissa How

Трэклист:

Your Love Never Fails (Jesus Culture Version)
Sing My Love
King of Glory
You Won't Relent
Beautiful
Happy Day
I Exalt Thee
Where You Go I'll Go (Jesus Culture Version)
All Consuming Fire (Jesus Culture Version)
Here Is My Heart

Формат / Качество: FLAC
Продолжительность: 01:12:25

Что такое FLAC?

Этот альбом в формате DVD5: ЗДЕСЬ
Exact Audio Copy V0.99 prebeta 5 from 4. May 2009

EAC extraction logfile from 21. June 2010, 15:52

Jesus Culture / Your Love Never Fails

Used drive : TSSTcorpCD/DVDW SH-S182M Adapter: 3 ID: 0

Read mode : Secure
Utilize accurate stream : Yes
Defeat audio cache : Yes
Make use of C2 pointers : No

Read offset correction : 0
Overread into Lead-In and Lead-Out : No
Fill up missing offset samples with silence : Yes
Delete leading and trailing silent blocks : No
Null samples used in CRC calculations : Yes
Used interface : Native Win32 interface for Win NT & 2000
Gap handling : Appended to previous track

Used output format : User Defined Encoder
Selected bitrate : 320 kBit/s
Quality : High
Add ID3 tag : No
Command line compressor : C:\Program Files (x86)\Exact Audio Copy\Flac\flac.exe
Additional command line options : -V -8 -T "artist=%a" -T "title=%t" -T "album=%g" -T "date=%y" -T "tracknumber=%n" -T "genre=%m" %s

TOC of the extracted CD

Track | Start | Length | Start sector | End sector
---------------------------------------------------------
1 | 0:00.00 | 7:57.66 | 0 | 35840
2 | 7:57.66 | 7:18.15 | 35841 | 68705
3 | 15:16.06 | 5:16.14 | 68706 | 92419
4 | 20:32.20 | 13:34.24 | 92420 | 153493
5 | 34:06.44 | 7:42.10 | 153494 | 188153
6 | 41:48.54 | 6:41.72 | 188154 | 218300
7 | 48:30.51 | 9:03.13 | 218301 | 259038
8 | 57:33.64 | 7:43.55 | 259039 | 293818
9 | 65:17.44 | 6:05.00 | 293819 | 321193
10 | 71:22.44 | 1:03.05 | 321194 | 325923

Track 1

Filename G:\FLAC\01 - Your Love Never Fails (Jesus Culture Version) - Jesus Culture - Your Love Never Fails - 2008 - Worship.wav

Pre-gap length 0:00:02.00

Peak level 100.0 %
Track quality 100.0 %
Test CRC 441BA796
Copy CRC 441BA796
Copy OK

Track 2

Filename G:\FLAC\02 - Sing My Love - Jesus Culture - Your Love Never Fails - 2008 - Worship.wav

Peak level 100.0 %
Track quality 100.0 %
Test CRC 73A153C7
Copy CRC 73A153C7
Copy OK

Track 3

Filename G:\FLAC\03 - King of Glory - Jesus Culture - Your Love Never Fails - 2008 - Worship.wav

Peak level 100.0 %
Track quality 100.0 %
Test CRC A6B9F1A9
Copy CRC A6B9F1A9
Copy OK

Track 4

Filename G:\FLAC\04 - You Won't Relent - Jesus Culture - Your Love Never Fails - 2008 - Worship.wav

Peak level 100.0 %
Track quality 100.0 %
Test CRC 7498A84C
Copy CRC 7498A84C
Copy OK

Track 5

Filename G:\FLAC\05 - Beautiful - Jesus Culture - Your Love Never Fails - 2008 - Worship.wav

Peak level 100.0 %
Track quality 100.0 %
Test CRC A638CE54
Copy CRC A638CE54
Copy OK

Track 6

Filename G:\FLAC\06 - Happy Day - Jesus Culture - Your Love Never Fails - 2008 - Worship.wav

Peak level 100.0 %
Track quality 100.0 %
Test CRC B60C2F81
Copy CRC B60C2F81
Copy OK

Track 7

Filename G:\FLAC\07 - I Exalt Thee - Jesus Culture - Your Love Never Fails - 2008 - Worship.wav

Peak level 100.0 %
Track quality 100.0 %
Test CRC 6DFEBCB6
Copy CRC 6DFEBCB6
Copy OK

Track 8

Filename G:\FLAC\08 - Where You Go I'll Go (Jesus Culture Version) - Jesus Culture - Your Love Never Fails - 2008 - Worship.wav

Peak level 100.0 %
Track quality 100.0 %
Test CRC 8427BE3C
Copy CRC 8427BE3C
Copy OK

Track 9

Filename G:\FLAC\09 - All Consuming Fire (Jesus Culture Version) - Jesus Culture - Your Love Never Fails - 2008 - Worship.wav

Peak level 100.0 %
Track quality 100.0 %
Test CRC 17A14B6D
Copy CRC 17A14B6D
Copy OK

Track 10

Filename G:\FLAC\10 - Here is My Heart - Jesus Culture - Your Love Never Fails - 2008 - Worship.wav

Peak level 100.0 %
Track quality 100.0 %
Test CRC 5B4FE6E5
Copy CRC 5B4FE6E5
Copy OK

No errors occurred

End of status report

_________________
И все, что делаете, делайте от души, как для Господа, а не для человеков (Кол.3:23)
[Профиль]  [ЛС] 
Показать сообщения:    
Ответить на тему

Текущее время: 24-Апр 16:43

Часовой пояс: GMT + 4



Вы не можете начинать темы
Вы не можете отвечать на сообщения
Вы не можете редактировать свои сообщения
Вы не можете удалять свои сообщения
Вы не можете голосовать в опросах
Вы не можете прикреплять файлы к сообщениям
Вы не можете скачивать файлы
[  Execution time: 0.157 sec  |  MySQL: 11 queries |  GZIP ON  |  Mem: 597.59 KB / 4 MB / 3.44 MB  |  Load: 0.4 0.4 0.4  ]