Loading...
Error

Bethel Live - Here Is Love (2009) FLAC

Статистика раздачи
Нет
 
     
 
 
Автор Сообщение

Blessing

Стаж: 9 лет 6 месяцев

Сообщений: 2574

post 22-Июн-2010 14:45

[Цитировать]  [] 

Jesus Culture - Bethel Live - Here Is Love

Исполнитель: Kim Walker-Smith, Chris Quilala, and Kristene Mueller
Альбом: Here Is Love
Дата выпуска: 2009
Жанр: Worship
Язык: English

Трэклист:

01. (00:04:23) Bethel Live - My Soul Sings
02. (00:06:07) Bethel Live - I Found A Love
03. (00:04:23) Bethel Live - King Of Wonder
04. (00:07:40) Bethel Live - I Love Your Presence
05. (00:04:36) Bethel Live - Spontaneous (You Make Me Happy)
06. (00:08:38) Bethel Live - What Does It Sound Like
07. (00:05:28) Bethel Live - Healer
08. (00:08:55) Bethel Live - I Need You More
09. (00:04:41) Bethel Live - Let Heaven Shout
10. (00:05:17) Bethel Live - Worthy Is The Lamb
11. (00:08:45) Bethel Live - Here Is Love

Формат / Качество: FLAC
Продолжительность: 01:08:52

Что такое FLAC?

DVD5: Здесь / DVDRip: Здесь
Exact Audio Copy V0.99 prebeta 5 from 4. May 2009

EAC extraction logfile from 9. March 2010, 15:43

Jesus Culture / Here Is Love

Used drive : TSSTcorpCDDVDW SH-S203N Adapter: 1 ID: 0

Read mode : Secure
Utilize accurate stream : Yes
Defeat audio cache : No
Make use of C2 pointers : No

Combined read/write offset correction : 0
Overread into Lead-In and Lead-Out : No
Fill up missing offset samples with silence : Yes
Delete leading and trailing silent blocks : No
Null samples used in CRC calculations : No
Used interface : Native Win32 interface for Win NT & 2000
Gap handling : Not detected, thus appended to previous track

Used output format : User Defined Encoder
Selected bitrate : 768 kBit/s
Quality : High
Add ID3 tag : No
Command line compressor : C:\Program Files (x86)\Exact Audio Copy\FLAC\FLAC.EXE
Additional command line options : -6 -V -T "ARTIST=%a" -T "TITLE=%t" -T "ALBUM=%g" -T "DATE=%y" -T "TRACKNUMBER=%n" -T "GENRE=%m" -T "COMMENT=%e" %s -o %d

TOC of the extracted CD

Track | Start | Length | Start sector | End sector
---------------------------------------------------------
1 | 0:00.00 | 4:29.05 | 0 | 20179
2 | 4:29.05 | 6:13.39 | 20180 | 48193
3 | 10:42.44 | 4:29.22 | 48194 | 68390
4 | 15:11.66 | 7:45.51 | 68391 | 103316
5 | 22:57.42 | 4:41.58 | 103317 | 124449
6 | 27:39.25 | 8:43.64 | 124450 | 163738
7 | 36:23.14 | 5:33.62 | 163739 | 188775
8 | 41:57.01 | 9:01.16 | 188776 | 229366
9 | 50:58.17 | 4:46.59 | 229367 | 250875
10 | 55:45.01 | 5:23.26 | 250876 | 275126
11 | 61:08.27 | 8:50.63 | 275127 | 314939

Track 1

Filename G:\Here Is Love\01 My Soul Sings - Jesus Culture.wav

Peak level 99.7 %
Track quality 100.0 %
Copy CRC D659EA7A
Copy OK

Track 2

Filename G:\Here Is Love\02 I've Found A Love - Jesus Culture.wav

Peak level 99.8 %
Track quality 100.0 %
Copy CRC 7EA1B3A0
Copy OK

Track 3

Filename G:\Here Is Love\03 King Of Wonders - Jesus Culture.wav

Peak level 99.8 %
Track quality 99.9 %
Copy CRC 12A00BA2
Copy OK

Track 4

Filename G:\Here Is Love\04 Your Presence - Jesus Culture.wav

Peak level 99.8 %
Track quality 100.0 %
Copy CRC A38F6B50
Copy OK

Track 5

Filename G:\Here Is Love\05 You Make Me Happy (spontaneous) - Jesus Culture.wav

Peak level 99.7 %
Track quality 100.0 %
Copy CRC FABC1F55
Copy OK

Track 6

Filename G:\Here Is Love\06 What Does It Sound Like - Jesus Culture.wav

Peak level 99.8 %
Track quality 100.0 %
Copy CRC 3AEAA77D
Copy OK

Track 7

Filename G:\Here Is Love\07 Healer - Jesus Culture.wav

Peak level 99.7 %
Track quality 100.0 %
Copy CRC 03DB3249
Copy OK

Track 8

Filename G:\Here Is Love\08 I Need You More - Jesus Culture.wav

Peak level 99.8 %
Track quality 100.0 %
Copy CRC A5A3AF4F
Copy OK

Track 9

Filename G:\Here Is Love\09 Let Heaven Shout - Jesus Culture.wav

Peak level 99.7 %
Track quality 100.0 %
Copy CRC D1E2FFF5
Copy OK

Track 10

Filename G:\Here Is Love\10 Worthy Is The Lamb - Jesus Culture.wav

Peak level 99.8 %
Track quality 100.0 %
Copy CRC B8CFA06A
Copy OK

Track 11

Filename G:\Here Is Love\11 Here Is Love - Jesus Culture.wav

Peak level 99.7 %
Track quality 100.0 %
Copy CRC DD8E64A0
Copy OK

No errors occurred

End of status report

_________________
И все, что делаете, делайте от души, как для Господа, а не для человеков (Кол.3:23)
[Профиль]  [ЛС] 
Показать сообщения:    
Ответить на тему

Текущее время: 21-Ноя 00:03

Часовой пояс: GMT + 4



Вы не можете начинать темы
Вы не можете отвечать на сообщения
Вы не можете редактировать свои сообщения
Вы не можете удалять свои сообщения
Вы не можете голосовать в опросах
Вы не можете прикреплять файлы к сообщениям
Вы не можете скачивать файлы
[  Execution time: 0.286 sec  |  MySQL: 11 queries |  GZIP ON  |  Mem: 597.53 KB / 4 MB / 3.44 MB  |  Load: 0.8 0.8 0.7  ]