Loading...
Error

Гедрюс Саулитис - Сердце Марии Магдалины (13-10-1996) VHSRip

Статистика раздачи
Нет
 
     
 
 
Автор Сообщение

Aleksey

Стаж: 10 лет

Сообщений: 1205

Откуда: отсюда :)

post 15-Июн-2011 19:02

[Цитировать]  [] 

Гедрюс Саулитис - Сердце Марии Магдалины (13-10-1996) VHSRip

Проповедует: Гедрюс Саулитис
Название проповеди: Сердце Марии Магдалины
Год выпуска: 13.10.1996
Жанр: видео-проповедь
Производство: Украина (г.Киев) церковь ПОБЕДА


Описание
Выкладываю в раздачу одну проповедь пастора церкви "Слово веры" в г.Вильнюсе (Литва), Гедрюса Саулитиса. Проповедь называется "Сердце Марии Магдалины".

Бог открыл лично мне в своё время, что я невсегда был посвящён Иисусу. По особому пережил, что моё сердце нуждается в Нём. И что в Иисусе и есть тот смысл, который даёт нам настоящую жизнь.
Быть с Иисусом, встретиться с Ним - это самое главное!!!

Бог нуждается в нас и мы нуждаемся в Иисусе! Бог призвал тебя и меня, и каждого из нас.

Пусть твоё сердце, будет как сердце Марии Магдалины.
Позволь Богу коснуться тебя и открыться в славе и полноте Своей!


Дополнительно:
Эта проповедь очень сильно в своё время повлияла на мою дальнейшую жизнь и влияет до сих пор.
Да благословит вас Господь!


Формат: AVI
Качество: VHSRip
Видео: MPEG-4, 512x400, 25.000 fps, 939 Kbps
Аудио: AAC, 48.0 KHz, 16 bits, 155 Kbps
Продолжительность: 01:26:54
Перевод: Русский (оригинал)
Субтитры нет


онлайн
General
Complete name : D:\4down\Torrent\Gedryus_Saulitis_Serdce_Marii_Magdalini_13_10_1996.avi
Format : MPEG-4
Format profile : Base Media / Version 1
Codec ID : mp41
File size : 683 MiB
Duration : 1h 26mn
Overall bit rate : 1 099 Kbps
Encoded date : UTC 2006-04-28 14:53:41
Tagged date : UTC 2006-04-28 14:53:41

Video
ID : 3
Format : MPEG-4 Visual
Format profile : Simple@L0
Format settings, BVOP : No
Format settings, QPel : No
Format settings, GMC : No warppoints
Format settings, Matrix : Default (H.263)
Codec ID : 20
Duration : 1h 26mn
Bit rate mode : Variable
Bit rate : 939 Kbps
Maximum bit rate : 1 625 Kbps
Width : 512 pixels
Height : 400 pixels
Display aspect ratio : 1.280
Frame rate mode : Constant
Frame rate : 25.000 fps
Color space : YUV
Chroma subsampling : 4:2:0
Bit depth : 8 bits
Scan type : Progressive
Compression mode : Lossy
Bits/(Pixel*Frame) : 0.183
Stream size : 583 MiB (85%)
Writing library : em4v 4.1.6.5
Language : English
Encoded date : UTC 2006-04-28 14:53:41
Tagged date : UTC 2006-04-28 14:53:41

Audio
ID : 4
Format : AAC
Format/Info : Advanced Audio Codec
Format profile : LC
Codec ID : 40
Duration : 1h 26mn
Bit rate mode : Variable
Bit rate : 155 Kbps
Maximum bit rate : 158 Kbps
Channel(s) : 2 channels
Channel positions : Front: L R
Sampling rate : 48.0 KHz
Compression mode : Lossy
Stream size : 96.6 MiB (14%)
Language : English
Encoded date : UTC 2006-04-28 14:53:41
Tagged date : UTC 2006-04-28 14:53:41
CRC32: 90C2E0DB
MD5: DC1FECEA77CC0F00D10026D331B840EA
SHA-1: FACE499803488E7740BC690C5965D72CF3A3DE15

_________________
"И напрасно я стану уверять, что сегодняшнее насилие создаст свободу завтра, — я внедряю только насилие. С жизнью не слукавишь. Не обманешь дерево, оно потянется туда, куда его направят. Прочее — ветер слов. И если мне кажется, что я жертвую вот этим поколением во имя счастья последующих, я просто-напросто жертвую людьми. Не этими и не теми, а всеми разом. Всех людей я обрекаю на злосчастье. Прочее — ветер слов. И если я воюю во имя мира, я укрепляю войну. С помощью войны не установить мира."
Антуан де Сент-Экзюпери. Цитадель
[Профиль]  [ЛС] 

Blessing

Стаж: 9 лет 5 месяцев

Сообщений: 2574

post 16-Июн-2011 09:18 (спустя 14 часов)

[Цитировать]  [] 

Это круто!

_________________
И все, что делаете, делайте от души, как для Господа, а не для человеков (Кол.3:23)
[Профиль]  [ЛС] 
Показать сообщения:    
Ответить на тему

Текущее время: 23-Окт 14:14

Часовой пояс: GMT + 4



Вы не можете начинать темы
Вы не можете отвечать на сообщения
Вы не можете редактировать свои сообщения
Вы не можете удалять свои сообщения
Вы не можете голосовать в опросах
Вы не можете прикреплять файлы к сообщениям
Вы не можете скачивать файлы
[  Execution time: 0.182 sec  |  MySQL: 11 queries |  GZIP ON  |  Mem: 597.53 KB / 4.01 MB / 3.45 MB  |  Load: 0.3 0.4 0.4  ]