Loading...
Error

Фил Дрискол (Phil Driscoll) - Возвещать, утверждать и распространять Слово Веры по всему миру (2000) VHSRip

Статистика раздачи
Нет
 
     
 
 
Автор Сообщение

Aleksey

Стаж: 9 лет

Сообщений: 1205

Откуда: отсюда :)

post 29-Май-2011 02:21

[Цитировать]  [] 

Фил Дрискол (Phil Driscoll) - Возвещать, утверждать и распространять Слово Веры по всему миру

Год выпуска: 2000
Жанр: прославление и поклонение, проповедь
Страна: Украина (г.Киев)

Продолжительность: 02:01:55 и 01:38:06
Перевод: Русский профессиональный (одноголосый)
Субтитры: нет

Описание:
Запись служения в церкви Мировой жатвы (г.Киев)

Качество: VHSRip
Формат: AVI
Видео: DIVX, 512x384 (4:3), 25.000 fps, 1024 Kbps
Аудио: MP3, 2 ch, 44.1 KHz, 320 Kbps

онлайн часть 1
онлайн часть 2
General
Complete name : E:\4down\Torrent\Фил Дрискол (Phil Driscoll) - Возвещать, утверждать и распространять Слово Веры по всему миру (2000) VHSRip\Фил Дрискол (Phil Driscoll) - Возвещать, утверждать и распространять Слово Веры по всему миру (часть 1) (2000) VHSRip.avi
Format : AVI
Format/Info : Audio Video Interleave
File size : 1.15 GiB
Duration : 2h 1mn
Overall bit rate : 1 354 Kbps
Writing application : MEncoder Sherpya-SVN-r30075-4.2.5
Writing library : VirtualDub-MPEG2 build 24586/release

Video
ID : 0
Format : MPEG-4 Visual
Format profile : Simple@L1
Format settings, BVOP : No
Format settings, QPel : No
Format settings, GMC : No warppoints
Format settings, Matrix : Default (H.263)
Codec ID : DIVX
Codec ID/Info : Project Mayo
Codec ID/Hint : DivX 4
Duration : 2h 1mn
Bit rate : 1 024 Kbps
Width : 512 pixels
Height : 384 pixels
Display aspect ratio : 4:3
Frame rate : 25.000 fps
Color space : YUV
Chroma subsampling : 4:2:0
Bit depth : 8 bits
Scan type : Progressive
Compression mode : Lossy
Bits/(Pixel*Frame) : 0.208
Stream size : 893 MiB (76%)
Writing library : Lavc52.43.0

Audio
ID : 1
Format : MPEG Audio
Format version : Version 1
Format profile : Layer 3
Mode : Joint stereo
Codec ID : 55
Codec ID/Hint : MP3
Duration : 2h 1mn
Bit rate mode : Constant
Bit rate : 320 Kbps
Channel(s) : 2 channels
Sampling rate : 44.1 KHz
Compression mode : Lossy
Stream size : 279 MiB (24%)
Alignment : Split accross interleaves
Interleave, duration : 40 ms (1.00 video frame)
Interleave, preload duration : 500 ms
Writing library : LAME3.98.2

General
Complete name : E:\4down\Torrent\Фил Дрискол (Phil Driscoll) - Возвещать, утверждать и распространять Слово Веры по всему миру (2000) VHSRip\Фил Дрискол (Phil Driscoll) - Возвещать, утверждать и распространять Слово Веры по всему миру (часть 2) (2000) VHSRip.avi
Format : AVI
Format/Info : Audio Video Interleave
File size : 951 MiB
Duration : 1h 38mn
Overall bit rate : 1 355 Kbps
Writing application : MEncoder Sherpya-SVN-r30075-4.2.5
Writing library : MPlayer

Video
ID : 0
Format : MPEG-4 Visual
Format profile : Simple@L1
Format settings, BVOP : No
Format settings, QPel : No
Format settings, GMC : No warppoints
Format settings, Matrix : Default (H.263)
Codec ID : DIVX
Codec ID/Info : Project Mayo
Codec ID/Hint : DivX 4
Duration : 1h 38mn
Bit rate : 1 023 Kbps
Width : 512 pixels
Height : 384 pixels
Display aspect ratio : 4:3
Frame rate : 25.000 fps
Color space : YUV
Chroma subsampling : 4:2:0
Bit depth : 8 bits
Scan type : Progressive
Compression mode : Lossy
Bits/(Pixel*Frame) : 0.208
Stream size : 718 MiB (75%)
Writing library : Lavc52.43.0

Audio
ID : 1
Format : MPEG Audio
Format version : Version 1
Format profile : Layer 3
Mode : Joint stereo
Codec ID : 55
Codec ID/Hint : MP3
Duration : 1h 38mn
Bit rate mode : Variable
Bit rate : 320 Kbps
Channel(s) : 2 channels
Sampling rate : 44.1 KHz
Compression mode : Lossy
Stream size : 224 MiB (24%)
Alignment : Aligned on interleaves
Interleave, duration : 26 ms (0.65 video frame)
Interleave, preload duration : 514 ms
Writing library : LAME3.98.2ЄЄЄЄЄЄЄЄЄЄ

_________________
"И напрасно я стану уверять, что сегодняшнее насилие создаст свободу завтра, — я внедряю только насилие. С жизнью не слукавишь. Не обманешь дерево, оно потянется туда, куда его направят. Прочее — ветер слов. И если мне кажется, что я жертвую вот этим поколением во имя счастья последующих, я просто-напросто жертвую людьми. Не этими и не теми, а всеми разом. Всех людей я обрекаю на злосчастье. Прочее — ветер слов. И если я воюю во имя мира, я укрепляю войну. С помощью войны не установить мира."
Антуан де Сент-Экзюпери. Цитадель


Последний раз редактировалось: Aleksey (2011-07-25 12:44), всего редактировалось 6 раз(а)
[Профиль]  [ЛС] 

Aleksey

Стаж: 9 лет

Сообщений: 1205

Откуда: отсюда :)

post 22-Окт-2011 14:09 (спустя 4 месяца 24 дня)

[Цитировать]  [] 

советую всем скачать ay ba

_________________
"И напрасно я стану уверять, что сегодняшнее насилие создаст свободу завтра, — я внедряю только насилие. С жизнью не слукавишь. Не обманешь дерево, оно потянется туда, куда его направят. Прочее — ветер слов. И если мне кажется, что я жертвую вот этим поколением во имя счастья последующих, я просто-напросто жертвую людьми. Не этими и не теми, а всеми разом. Всех людей я обрекаю на злосчастье. Прочее — ветер слов. И если я воюю во имя мира, я укрепляю войну. С помощью войны не установить мира."
Антуан де Сент-Экзюпери. Цитадель
[Профиль]  [ЛС] 
Показать сообщения:    
Ответить на тему

Текущее время: 17-Авг 01:49

Часовой пояс: GMT + 4



Вы не можете начинать темы
Вы не можете отвечать на сообщения
Вы не можете редактировать свои сообщения
Вы не можете удалять свои сообщения
Вы не можете голосовать в опросах
Вы не можете прикреплять файлы к сообщениям
Вы не можете скачивать файлы
[  Execution time: 0.242 sec  |  MySQL: 11 queries |  GZIP ON  |  Mem: 597.53 KB / 4.01 MB / 3.45 MB  |  Load: 0.8 0.9 0.8  ]