Loading...
Error

Abraham Laboriel – New Bass Concepts (1990) VHSRip

Статистика раздачи
Нет
 
     
 
 
Автор Сообщение

Pashakorg

Стаж: 8 лет 5 месяцев

Сообщений: 505

Украина

post 12-Мар-2011 15:51

[Цитировать]  [] 

Abraham Laboriel – New Bass Concepts

Выпущено: USA
Название: New Bass Concepts
Год выпуска: 1990
Жанр: Видеошкола, мастер-класс (бас гитара)
Преподаватель: Abraham Laboriel
Язык: Английский

Качество: VHSRip
Формат: AVI
Видео: DivX 5, 640x480, 25.00fps, 1101Kbps
Аудио: MPEG Audio Layer 3, 44100Hz, mono, 320Kbps
Продолжительность: 01:06:14
Format : AVI
Format/Info : Audio Video Interleave
File size : 678 MiB
Duration : 1h 6mn
Overall bit rate : 1 431 Kbps
Writing library : VirtualDub build 18160/release

Video
Format : MPEG-4 Visual
Format settings, BVOP : No
Format settings, QPel : No
Format settings, GMC : No warppoints
Format settings, Matrix : Default
Codec ID : DX50
Codec ID/Hint : DivX 5
Duration : 1h 6mn
Bit rate : 1 101 Kbps
Width : 640 pixels
Height : 480 pixels
Display aspect ratio : 4/3
Frame rate : 25.000 fps
Resolution : 24 bits
Colorimetry : 4:2:0
Scan type : Progressive
Bits/(Pixel*Frame) : 0.143
Stream size : 522 MiB (77%)
Writing library : DivX 5.0.5 (UTC 2003-04-24)

Audio
Format : MPEG Audio
Format version : Version 1
Format profile : Layer 3
Codec ID : 55
Codec ID/Hint : MP3
Duration : 1h 6mn
Bit rate mode : Constant
Bit rate : 320 Kbps
Channel(s) : 1 channel
Sampling rate : 44.1 KHz
Resolution : 16 bits
Stream size : 152 MiB (22%)
Alignment : Split accross interleaves
Interleave, duration : 40 ms (0.99 video frame)
Interleave, preload duration : 500 ms

_________________
"блаженнее давать, нежели принимать" - Деян.20:35
[Профиль]  [ЛС] 

Maxim_Ex

Стаж: 8 лет

Сообщений: 14

Россия

post 24-Авг-2011 11:37 (спустя 5 месяцев 11 дней)

[Цитировать]  [] 

встаньте на раздачу!!
[Профиль]  [ЛС] 
Показать сообщения:    
Ответить на тему

Текущее время: 25-Май 01:39

Часовой пояс: GMT + 4



Вы не можете начинать темы
Вы не можете отвечать на сообщения
Вы не можете редактировать свои сообщения
Вы не можете удалять свои сообщения
Вы не можете голосовать в опросах
Вы не можете прикреплять файлы к сообщениям
Вы не можете скачивать файлы
[  Execution time: 0.202 sec  |  MySQL: 11 queries |  GZIP ON  |  Mem: 597.59 KB / 4.03 MB / 3.48 MB  |  Load: 1.1 0.7 0.9  ]