Loading...
Error

Alex Acuña: South American, Caribbean, African and American Jazz (1994) VHSRip

Статистика раздачи
Нет
 
     
 
 
Автор Сообщение

Pashakorg

Стаж: 8 лет 11 месяцев

Сообщений: 505

Украина

post 12-Мар-2011 15:38

[Цитировать]  [] 

Alex Acuña: South American, Caribbean, African and American Jazz

Выпущено: USA
Название: South American, Caribbean, African and American Jazz
Год выпуска: 1994
Жанр: Видеошкола, мастер-класс (ударные)
Преподаватель: Alex Acuña
Язык: Русский, закадровый перевод

Качество: VHSRip
Формат: AVI
Видео: DivX 3, 384x275, 25.00fps, 1311Kbps
Аудио: PCM, 16000Hz, mono, 128Kbps
Продолжительность: 01:04:45
Format : AVI
Format/Info : Audio Video Interleave
File size : 671 MiB
Duration : 1h 4mn
Overall bit rate : 1 449 Kbps
Writing application : Nandub v1.0rc2
Writing library : Nandub build 1853/release

Video
Format : MPEG-4 Visual
Codec ID : DIV3
Codec ID/Hint : DivX 3 Low
Duration : 1h 4mn
Bit rate : 1 312 Kbps
Width : 384 pixels
Height : 275 pixels
Display aspect ratio : 1.396
Frame rate : 25.000 fps
Resolution : 24 bits
Bits/(Pixel*Frame) : 0.497
Stream size : 607 MiB (90%)

Audio
Format : PCM
Format settings, Endianness : Little
Format settings, Sign : Unsigned
Codec ID : 1
Codec ID/Hint : Microsoft
Duration : 1h 4mn
Bit rate mode : Constant
Bit rate : 128 Kbps
Channel(s) : 1 channel
Sampling rate : 16.0 KHz
Resolution : 8 bits
Stream size : 59.3 MiB (9%)
Interleave, duration : 40 ms (1.00 video frame)
Interleave, preload duration : 500 ms

_________________
"блаженнее давать, нежели принимать" - Деян.20:35
[Профиль]  [ЛС] 
Показать сообщения:    
Ответить на тему

Текущее время: 17-Ноя 16:47

Часовой пояс: GMT + 4



Вы не можете начинать темы
Вы не можете отвечать на сообщения
Вы не можете редактировать свои сообщения
Вы не можете удалять свои сообщения
Вы не можете голосовать в опросах
Вы не можете прикреплять файлы к сообщениям
Вы не можете скачивать файлы
[  Execution time: 0.209 sec  |  MySQL: 11 queries |  GZIP ON  |  Mem: 597.53 KB / 4.02 MB / 3.47 MB  |  Load: 0.5 0.5 0.4  ]